На всех торрентах на трекере установлена скидка на скачивание в размере 100 процентов(а).
 Возможность скачивания торрента НЕ зависит от ограничений при низком ратио, низком аплоаде, требуемом ратио или требуемом аплоаде.


Начать новую тему Ответить на тему
Статистика раздачи
Размер: 2.18 ГБ | Добавлен: 03 апр 2014, 12:42 | Скачали: 0
Сидеров: 19  [0 байт/сек]    Личеров: 6  [0 байт/сек]
Пред. тема | След. тема 

Автор
Сообщение

СообщениеДобавлено: 03 апр 2014, 12:42 

Неоспоримый 3 / Undisputed III: Redemption



Страна: США
Жанр: боевик, драма, криминал
Год выпуска: 2010
Продолжительность: 01:36:01
Перевод: Профессиональный (многоголосый) | Лицензия
Cубтитры Русские, Английские
Оригинальная аудиодорожка: Английский
Режиссер: Айзек Флорентайн / Isaac Florentine
В ролях: Скотт Эдкинс / Scott Adkins, Майкл Шеннон Дженкинс / Mykel Shannon Jenkins, Марк Иванир / Mark Ivanir, Христо Шопов / Hristo Shopov, Марко Зарор / Marko Zaror, Майкл Бэрал / Michael Baral, Илрам Чои / Ilram Choi, Роберт Костанцо / Robert Costanzo, Латиф Кроудер / Lateef Crowder, Эстебан Куето / Esteban Cueto
Описание:
Юрий Бойка - российский чемпион подпольных боев без правил, постепенно оправляющийся от полученной в последнем поединке травмы, решает вернуться на ринг. Победив в бою нынешнего чемпиона тюрьмы «Чёрные Холмы», его босс - Гага - решает отправить его на международный чемпионат тюремных поединков. Поврежденное колено дает о себе знать в каждом бою и беспокоит Бойку, но он готов пройти до конца, чтобы сразиться с колумбийским бойцом и доказать, что он неоспоримый.






Качество видео: BDRip-AVC | исх. Undisputed.III.Redemption.2010.BDRemux
Формат видео: MKV
Видео: AVC; 924 x 520 (16:9); 23,976 fps; 2357 kbps
Аудио №1: AC3 Dolby Digital; 48 KHz; 448 kbps; 3/2 (L,C,R,l,r) + LFE ch
Аудио №2: AC3 Dolby Digital; 48 KHz; 448 kbps; 3/2 (L,C,R,l,r) + LFE ch
Формат субтитров: softsub (SRT)
СЭМПЛ


MediaInfo/log
log
Код:
Код:
-[NoImage] raw [info]: 924x520p 1:1 @ 24000/1001 fps (cfr)
-[NoImage] x264 [info]: using SAR=1/1
-[NoImage] x264 [info]: using cpu capabilities: MMX2 SSE2Fast SSSE3 FastShuffle SSE4.2
-[NoImage] x264 [info]: profile High, level 4.1
-[NoImage]
-[NoImage] x264 [info]: frame I:1242  Avg QP:15.35  size: 68194
-[NoImage] x264 [info]: frame P:34883 Avg QP:17.72  size: 23795
-[NoImage] x264 [info]: frame B:102019 Avg QP:20.13  size:  7676
-[NoImage] x264 [info]: consecutive B-frames:  3.5%  4.9% 11.5% 31.8% 17.5% 24.5%  3.1%  2.1%  0.6%  0.7%
-[NoImage] x264 [info]: mb I  I16..4:  9.6% 65.6% 24.8%
-[NoImage] x264 [info]: mb P  I16..4:  1.7% 18.0%  2.9%  P16..4: 31.9% 24.8% 13.9%  0.0%  0.0%    skip: 6.8%
-[NoImage] x264 [info]: mb B  I16..4:  0.2%  2.2%  0.4%  B16..8: 36.1% 13.2%  3.7%  direct: 5.7%  skip:38.6%  L0:40.2% L1:41.8% BI:18.0%
-[NoImage] x264 [info]: 8x8 transform intra:78.2% inter:54.4%
-[NoImage] x264 [info]: direct mvs  spatial:96.7% temporal:3.3%
-[NoImage] x264 [info]: coded y,uvDC,uvAC intra: 86.4% 78.6% 51.0% inter: 22.7% 15.3% 2.7%
-[NoImage] x264 [info]: i16 v,h,dc,p: 35% 12%  9% 44%
-[NoImage] x264 [info]: i8 v,h,dc,ddl,ddr,vr,hd,vl,hu: 18% 13%  8%  7% 10% 10% 11% 11% 12%
-[NoImage] x264 [info]: i4 v,h,dc,ddl,ddr,vr,hd,vl,hu: 16% 10%  5%  8% 14% 13% 13% 10% 11%
-[NoImage] x264 [info]: i8c dc,h,v,p: 38% 26% 21% 15%
-[NoImage] x264 [info]: Weighted P-Frames: Y:2.5% UV:1.0%
-[NoImage] x264 [info]: ref P L0: 52.4% 12.1% 16.1%  6.0%  4.6%  3.4%  2.9%  2.0%  0.4%  0.0%
-[NoImage] x264 [info]: ref B L0: 79.5% 10.3%  4.7%  2.3%  1.7%  1.0%  0.5%
-[NoImage] x264 [info]: ref B L1: 93.7%  6.3%
-[NoImage] x264 [info]: kb/s:2357.40

General
Unique ID : 182164627136390647720274226668420114241 (0x890BA18A97CD80EEA45AB6F16CBEA741)
Complete name : I:\Other\Neosporimyi.3.2010.DUAL.BDRip-AVC.AC3.-HQ-ViDEO.mkv
Format : Matroska
Format version : Version 2
File size : 2.18 GiB
Duration : 1h 36mn
Overall bit rate : 3 255 Kbps
Movie name : Neosporimyi 3 / 2010 / Release by Vaippp / HQ-ViDEO
Encoded date : UTC 2011-08-11 04:13:25
Writing application : mkvmerge v4.9.1 ('Ich will') сборка от Jul 11 2011 23:53:15
Writing library : libebml v1.2.1 + libmatroska v1.1.1

Video
ID : 1
Format : AVC
Format/Info : Advanced Video Codec
Format profile : High@L4.1
Format settings, CABAC : Yes
Format settings, ReFrames : 8 frames
Codec ID : V_MPEG4/ISO/AVC
Duration : 1h 36mn
Bit rate : 2 357 Kbps
Width : 924 pixels
Height : 520 pixels
Display aspect ratio : 16:9
Frame rate : 23.976 fps
Color space : YUV
Chroma subsampling : 4:2:0
Bit depth : 8 bits
Scan type : Progressive
Bits/(Pixel*Frame) : 0.205
Stream size : 1.54 GiB (70%)
Title : BDRip 11/08/2011
Writing library : x264 core 116 r2044 392e762
Encoding settings : cabac=1 / ref=8 / deblock=1:-3:-2 / analyse=0x3:0x113 / me=umh / subme=10 / psy=1 / psy_rd=1.00:0.15 / mixed_ref=1 / me_range=32 / chroma_me=1 / trellis=2 / 8x8dct=1 / cqm=0 / deadzone=21,11 / fast_pskip=0 / chroma_qp_offset=-3 / threads=12 / sliced_threads=0 / nr=0 / decimate=1 / interlaced=0 / bluray_compat=0 / constrained_intra=0 / bframes=9 / b_pyramid=2 / b_adapt=2 / b_bias=0 / direct=3 / weightb=1 / open_gop=0 / weightp=2 / keyint=250 / keyint_min=23 / scenecut=40 / intra_refresh=0 / rc_lookahead=40 / rc=2pass / mbtree=1 / bitrate=2357 / ratetol=1.0 / qcomp=0.70 / qpmin=1 / qpmax=63 / qpstep=4 / cplxblur=20.0 / qblur=0.5 / vbv_maxrate=50000 / vbv_bufsize=62500 / nal_hrd=none / ip_ratio=1.40 / aq=1:0.90 / zones=133360,138143,q=40
Language : English

Audio #1
ID : 2
Format : AC-3
Format/Info : Audio Coding 3
Mode extension : CM (complete main)
Codec ID : A_AC3
Duration : 1h 36mn
Bit rate mode : Constant
Bit rate : 448 Kbps
Channel(s) : 6 channels
Channel positions : Front: L C R, Side: L R, LFE
Sampling rate : 48.0 KHz
Bit depth : 16 bits
Compression mode : Lossy
Stream size : 308 MiB (14%)
Title : MVO
Language : Russian

Audio #2
ID : 3
Format : AC-3
Format/Info : Audio Coding 3
Mode extension : CM (complete main)
Codec ID : A_AC3
Duration : 1h 36mn
Bit rate mode : Constant
Bit rate : 448 Kbps
Channel(s) : 6 channels
Channel positions : Front: L C R, Side: L R, LFE
Sampling rate : 48.0 KHz
Bit depth : 16 bits
Compression mode : Lossy
Stream size : 308 MiB (14%)
Title : Original
Language : English

Text #1
ID : 4
Format : UTF-8
Codec ID : S_TEXT/UTF8
Codec ID/Info : UTF-8 Plain Text
Language : Russian

Text #2
ID : 5
Format : UTF-8
Codec ID : S_TEXT/UTF8
Codec ID/Info : UTF-8 Plain Text
Language : English

Menu
00:00:00.000 : en:00:00:00.000
00:11:31.231 : en:00:11:31.231
00:19:26.455 : en:00:19:26.455
00:28:14.275 : en:00:28:14.275
00:40:06.695 : en:00:40:06.695
00:49:29.340 : en:00:49:29.340
01:01:16.463 : en:01:01:16.463
01:12:28.844 : en:01:12:28.844
01:25:33.336 : en:01:25:33.336
01:32:27.082 : en:01:32:27.082

загрузка...
Правила, инструкции, FAQ!!!
Торрент  Добавлен [03 апр 2014, 12:42] Скачать торрент
Скачать торрент
[ Размер 11.5 КБ / Просмотров 5 ]

Статус  
 
Размер  2.18 ГБ
Приватный: Нет (DHT включён)
.torrent скачан  0
Как залить торрент? | Как скачать Torrent? | Как смотреть и слушать онлайн?  


     Отправить личное сообщение
   
Страница 1 из 1
Показать сообщения за:  Поле сортировки  
Начать новую тему Ответить на тему

   Похожие торренты   Автор   Ответы   Просмотры   Последнее сообщение 
В этой теме нет новых непрочитанных сообщений. Скачать торрент Неоспоримый 2 / Обсуждению не подлежит 2 / Undisputed II: Last Man Standing (Айзек Флорентайн / Isaac Florentine) [2006, боевик, драма, криминал, спорт, BDRip]

в форуме Боевики, Размер: 744.06 МБ, Здоровье: 100%

Anonymous

0
14|5

49
0

19 апр 2014, 18:50

Anonymous Перейти к последнему сообщению

В этой теме нет новых непрочитанных сообщений. Скачать торрент Проверен Неоспоримый 2 / Undisputed II: Last Man Standing (2006) BDRip 1080p

в форуме 720p | 1080p, Размер: 5.76 ГБ, Здоровье: 100%

Гость

0
32|1

88
31

20 янв 2016, 17:32

Гость Перейти к последнему сообщению

В этой теме нет новых непрочитанных сообщений. Скачать торрент Отступники / The Departed (Мартин Скорсезе / Martin Scorsese) [2006 г., драма, боевик, криминал, BDRip] Dub

в форуме Драмы, Мелодрамы, Размер: 2.18 ГБ, Здоровье: 100%

Anonymous

0
56|19

44
1

02 апр 2014, 08:22

Anonymous Перейти к последнему сообщению

В этой теме нет новых непрочитанных сообщений. Скачать торрент Форсаж 4 / Fast & Furious (Джастин Лин / Justin Lin) [2009, Боевик, триллер, драма, криминал, BDRip]

в форуме Боевики, Размер: 1.46 ГБ, Здоровье: 100%

Anonymous

0
56|19

61
0

17 фев 2014, 11:45

Anonymous Перейти к последнему сообщению

В этой теме нет новых непрочитанных сообщений. Скачать торрент Король Нью-Йорка / King of New York (Абель Феррара) [720p] [1990 г., боевик, драма, криминал, BDRip]

в форуме 720p | 1080p, Размер: 4.82 ГБ, Здоровье: 0%

Anonymous

0
0|0

43
0

25 фев 2014, 22:41

Anonymous Перейти к последнему сообщению



Сейчас этот форум просматривают: нет зарегистрированных пользователей и гости: 1


Вы не можете начинать темы
Вы не можете отвечать на сообщения
Вы не можете редактировать свои сообщения
Вы не можете удалять свои сообщения
Вы не можете добавлять вложения

Перейти:  

!ВНИМАНИЕ!
 Ресурс не предоставляет электронные версии произведений, а занимается лишь коллекционированием и каталогизацией ссылок, присылаемых и публикуемых на форуме нашими читателями. Если вы являетесь правообладателем какого-либо представленного материала и не желаете чтобы ссылка на него находилась в нашем каталоге, свяжитесь с нами и мы незамедлительно удалим её. Файлы для обмена на трекере предоставлены пользователями сайта, и администрация не несёт ответственности за их содержание. Просьба не заливать файлы, защищенные авторскими правами, а также файлы нелегального содержания!