На всех торрентах на трекере установлена скидка на скачивание в размере 100 процентов(а).
 Возможность скачивания торрента НЕ зависит от ограничений при низком ратио, низком аплоаде, требуемом ратио или требуемом аплоаде.


Начать новую тему Ответить на тему
Статистика раздачи
Размер: 1.37 ГБ | Добавлен: 02 апр 2014, 12:08 | Скачали: 0
Сидеров: 1  [0 байт/сек]    Личеров: 0  [0 байт/сек]
Пред. тема | След. тема 

Автор
Сообщение

СообщениеДобавлено: 02 апр 2014, 12:08 

Жук / Besouro

Страна: Бразилия
Жанр: боевик, драма, приключения
Год выпуска: 2009
Продолжительность: 01:33:29

Перевод: Профессиональный (многоголосый закадровый)
Cубтитры: нет
Режиссер: Жоао Даниэль Тихмирофф / Joao Daniel Tikhomiroff

В ролях: Аилтон Цармо, Андерсон Сантос Де Иисус, Джессика Барбоза, Флавиу Роча, Ирандхир, Мацалй, Лено, Сацраменто, Крис Вианна, Сйргио Лаурентино, Адриана Алвес

Описание: Приключенческий фильм о бразильском мастере капоэйры и борце за права чернокожего населения Мануэле Энрике Перейре, больше известного под боевым прозвищем Жук. 20-е годы прошлого века, Бразилия. Рабства уже нет, но особых прав у бывших рабов нет тоже. Властям выгоден бесплатный труд.
Наряду с другими элементами культуры неевропейского населения страны, запрещена и капоэйра, а тех, кто ей занимается, преследуют по закону, поэтому бойцы капоэйры вынуждены организовывать подобие подпольных партизанских отрядов. Один из таких отрядов возглавляет Жук — он поджигает богатые плантации, уничтожает сельскохозяйственную технику. За Жуком и его соратниками идет постоянная охота.

Доп. информация: IMDB 5.8/10 (415 votes)

Качество видео: HDRip (Исходник неизвестен)
Формат видео: AVIВидео: XviD, 720x400, 23.976 fps, 1 899 Kbps
Аудио: AC-3, (2 channels), 192 Kbps, 44.1 KHz
MediaInfo
General
Complete name : E:\Torrent\Жук.2009.P.HDRip.avi
Format : AVI
Format/Info : Audio Video Interleave
File size : 1.37 GiB
Duration : 1h 33mn
Overall bit rate : 2 100 Kbps
Writing application : VirtualDubMod 1.5.10.2 (build 2540/release)
Writing library : VirtualDubMod build 2540/release
Video #0
ID : 0
Format : MPEG-4 Visual
Format profile : Advanced Simple@L5
Format settings, BVOP : Yes
Format settings, QPel : Yes
Format settings, GMC : 3 warppoints
Format settings, Matrix : Default (H.263)
Codec ID : XVID
Codec ID/Hint : XviD
Duration : 1h 33mn
Bit rate : 1 899 Kbps
Width : 720 pixels
Height : 400 pixels
Display aspect ratio : 16:9
Frame rate : 23.976 fps
Color space : YUV
Chroma subsampling : 4:2:0
Bit depth : 8 bits
Scan type : Progressive
Compression mode : Lossy
Bits/(Pixel*Frame) : 0.275
Stream size : 1.24 GiB (90%)
Writing library : XviD 1.2.1 (UTC 2008-12-04)
Audio #1
ID : 1
Format : AC-3
Format/Info : Audio Coding 3
Mode extension : CM (complete main)
Codec ID : 2000
Duration : 1h 33mn
Bit rate mode : Constant
Bit rate : 192 Kbps
Channel(s) : 2 channels
Channel positions : Front: L R
Sampling rate : 44.1 KHz
Bit depth : 16 bits
Compression mode : Lossy
Stream size : 128 MiB (9%)
Alignment : Aligned on interleaves
Скриншоты
загрузка...
Правила, инструкции, FAQ!!!
Торрент  Добавлен [02 апр 2014, 12:08] Скачать торрент
Скачать торрент
[ Размер 14.21 КБ / Просмотров 5 ]

Статус  
 
Размер  1.37 ГБ
Приватный: Нет (DHT включён)
.torrent скачан  0
Как залить торрент? | Как скачать Torrent? | Как смотреть и слушать онлайн?  


     Отправить личное сообщение
   
Страница 1 из 1
Показать сообщения за:  Поле сортировки  
Начать новую тему Ответить на тему

   Похожие торренты   Автор   Ответы   Просмотры   Последнее сообщение 
В этой теме нет новых непрочитанных сообщений. Скачать торрент Аватар / Avatar (Джеймс Кэмерон / James Cameron) [2009, Фантастика, боевик, драма, приключения, HDRip] [Театральная версия / Theatrical Cut]

в форуме Фантастика, Фэнтези, Размер: 1.46 ГБ, Здоровье: 100%

Anonymous

0
11|4

71
0

17 фев 2014, 08:03

Anonymous Перейти к последнему сообщению

В этой теме нет новых непрочитанных сообщений. Скачать торрент 2012 / 2012 (Роланд Эммерих / Roland Emmerich) [2009 г., Боевик, приключения, драма, фантастика, HDRip] Dub

в форуме Фантастика, Фэнтези, Размер: 1.47 ГБ, Здоровье: 100%

Anonymous

0
1|0

158
0

12 фев 2014, 08:16

Anonymous Перейти к последнему сообщению

В этой теме нет новых непрочитанных сообщений. Скачать торрент Проверен [iPad] Два мира / Les deux mondes (Даниэль Коэн / Daniel Cohen ) [2007, Франция, Фэнтези, комедия, HDRip, SD (576p)] DUB + Original

в форуме Фильмы для iPod, iPhone, iPad, Размер: 1.77 ГБ, Здоровье: 100%

Гость

0
5|2

27
0

18 май 2015, 10:49

Гость Перейти к последнему сообщению

В этой теме нет новых непрочитанных сообщений. Скачать торрент Брук. Вызов / Bruc the Manhunt / Bruc. La llegenda (Даниэль Бенмаур / Daniel Benmayor) [2010, Испания, Приключения, история, DVDRip] DVO

в форуме Приключения, Размер: 1.45 ГБ, Здоровье: 100%

Anonymous

0
2|1

56
1

07 фев 2014, 11:39

Anonymous Перейти к последнему сообщению

В этой теме нет новых непрочитанных сообщений. Скачать торрент Проверен [iPhone] Схватка / The Grey (Джо Карнахан / Joe Carnahan) [2012, Боевик, триллер, драма, приключения, HDRip, 480x200]

в форуме Фильмы для iPod, iPhone, iPad, Размер: 593.06 МБ, Здоровье: 100%

Anonymous

0
1|0

48
0

18 май 2015, 10:54

Anonymous Перейти к последнему сообщению



Сейчас этот форум просматривают: нет зарегистрированных пользователей и гости: 1


Вы не можете начинать темы
Вы не можете отвечать на сообщения
Вы не можете редактировать свои сообщения
Вы не можете удалять свои сообщения
Вы не можете добавлять вложения

Перейти:  

!ВНИМАНИЕ!
 Ресурс не предоставляет электронные версии произведений, а занимается лишь коллекционированием и каталогизацией ссылок, присылаемых и публикуемых на форуме нашими читателями. Если вы являетесь правообладателем какого-либо представленного материала и не желаете чтобы ссылка на него находилась в нашем каталоге, свяжитесь с нами и мы незамедлительно удалим её. Файлы для обмена на трекере предоставлены пользователями сайта, и администрация не несёт ответственности за их содержание. Просьба не заливать файлы, защищенные авторскими правами, а также файлы нелегального содержания!