На всех торрентах на трекере установлена скидка на скачивание в размере 100 процентов(а).
 Возможность скачивания торрента НЕ зависит от ограничений при низком ратио, низком аплоаде, требуемом ратио или требуемом аплоаде.


Начать новую тему Ответить на тему
Статистика раздачи
Размер: 830.56 МБ | Добавлен: 02 апр 2014, 12:07 | Скачали: 0
Сидеров: 2  [0 байт/сек]    Личеров: 1  [0 байт/сек]
Пред. тема | След. тема 

Автор
Сообщение

СообщениеДобавлено: 02 апр 2014, 12:07 

Бронсон / Bronson



Страна: Великобритания
Студия: VERTIGO FILMS
Жанр: боевик, триллер, драма, криминал, биография
Год выпуска: 2008
Продолжительность: 01:32:28

Перевод: Профессиональный (двухголосый закадровый) НТВ+
Субтитры: нет
Оригинальная аудиодорожка: Английский

Режиссер: Николас Виндинг Рёфн / Nicolas Winding Refn

В ролях: Том Харди, Мэтт Кинг, Келли Адамс, Кэти Баркер, Эдвард Беннет-Кол, Джун Вуд, Нил Брум, Аманда Бертон, Уильям Дарк, Марк Девенпорт...

Описание: История жизни британского заключённого Чарльза Бронсона, урождённого Майкла Гордона Питерсона из благополучной британской семьи среднего класса. Бронсон провёл «за решёткой» почти 40 лет, в одиночной камере за различные нарушения, и характеризуется как самый опасный британский преступник.





Тип релиза: BDRip, источник BDRemux
Контейнер: AVI

Видео: 656x352 (1.874:1), 24.000 fps, XVID ~990 kbps avg, 0.179 bit/pixel
Аудио : Русский 48 kHz, MP3, 2 ch, 128.00 kbps Constant
Аудио 2: Английский 48 kHz, MP3, 2 ch, 128.00 kbps Constant (отделным файлом)
MediaInfo
General
Complete name : Bronson.2008.P2.BDRip.745MB.avi
Format : AVI
Format/Info : Audio Video Interleave
File size : 746 MiB
Duration : 1h 32mn
Overall bit rate : 1 128 Kbps
Writing application : VirtualDubModRus 1.5.10.2 (build 2542/release)
Writing library : VirtualDubMod build 2542/release

Video
ID : 0
Format : MPEG-4 Visual
Format profile : Advanced Simple@L5
Format settings, BVOP : Yes
Format settings, QPel : No
Format settings, GMC : No warppoints
Format settings, Matrix : Custom
Muxing mode : Packed bitstream
Codec ID : XVID
Codec ID/Hint : XviD
Duration : 1h 32mn
Bit rate : 990 Kbps
Width : 656 pixels
Height : 352 pixels
Display aspect ratio : 1.864
Frame rate : 24.000 fps
Color space : YUV
Chroma subsampling : 4:2:0
Bit depth : 8 bits
Scan type : Progressive
Bits/(Pixel*Frame) : 0.179
Stream size : 655 MiB (88%)
Writing library : XviD 1.2.1 (UTC 2008-12-04)

Audio
ID : 1
Format : MPEG Audio
Format version : Version 1
Format profile : Layer 3
Mode : Joint stereo
Mode extension : MS Stereo
Codec ID : 55
Codec ID/Hint : MP3
Duration : 1h 32mn
Bit rate mode : Constant
Bit rate : 128 Kbps
Channel(s) : 2 channels
Sampling rate : 48.0 KHz
Stream size : 84.7 MiB (11%)
Alignment : Aligned on interleaves
Interleave, duration : 42 ms (1.00 video frame)
Interleave, preload duration : 504 ms
Writing library : LAME3.99 (alpha)
Скриншоты
загрузка...
Правила, инструкции, FAQ!!!
Торрент  Добавлен [02 апр 2014, 12:07] Скачать торрент
Скачать торрент
[ Размер 33.25 КБ / Просмотров 7 ]

Статус  
 
Размер  830.56 МБ
Приватный: Нет (DHT включён)
.torrent скачан  0
Как залить торрент? | Как скачать Torrent? | Как смотреть и слушать онлайн?  


     Отправить личное сообщение
   
Страница 1 из 1
Показать сообщения за:  Поле сортировки  
Начать новую тему Ответить на тему

   Похожие торренты   Автор   Ответы   Просмотры   Последнее сообщение 
В этой теме нет новых непрочитанных сообщений. Скачать торрент Проверен [iPad] Только Бог простит / Only God Forgives (Николас Виндинг Рефн / Nicolas Winding Refn ) [2013, Франция, Таиланд, США, Швеция, триллер, драма, криминал, BDRip, SD (576p)] AVO + Original + sub (rus, eng forced)

в форуме Фильмы для iPod, iPhone, iPad, Размер: 1.58 ГБ, Здоровье: 100%

Гость

0
14|4

37
0

11 май 2015, 01:23

Гость Перейти к последнему сообщению

В этой теме нет новых непрочитанных сообщений. Скачать торрент Страх «Икс» / Fear X (Николас Виндинг Рефн / Nicolas Winding Refn) [2003, триллер, BDRip] MVO

в форуме Триллеры, Размер: 1.45 ГБ, Здоровье: 0%

Anonymous

0
0|0

24
0

10 фев 2014, 13:03

Anonymous Перейти к последнему сообщению

В этой теме нет новых непрочитанных сообщений. Скачать торрент Вальгалла: Сага о викинге / Вознесение в Вальгаллу / Valhalla Rising (Николас Виндинг Рёфн / Nicolas Winding Refn) [2009 г., Притча, драма, HDRip-AVC]

в форуме Драмы, Мелодрамы, Размер: 1.45 ГБ, Здоровье: 100%

Anonymous

0
56|19

20
0

15 апр 2014, 08:19

Anonymous Перейти к последнему сообщению

В этой теме нет новых непрочитанных сообщений. Скачать торрент Рок-н-рольщик / RocknRolla (Гай Ричи / Guy Ritchie) [2008, США, Великобритания, боевик, триллер, комедия, криминал, BDRip-AVC]

в форуме 720p | 1080p, Размер: 4.7 ГБ, Здоровье: 100%

Anonymous

0
38|13

169
2

16 фев 2014, 13:09

Anonymous Перейти к последнему сообщению

В этой теме нет новых непрочитанных сообщений. Скачать торрент Ограбление на Бейкер-Стрит / The Bank Job (Роджер Дональдсон / Roger Donaldson) [2008, Великобритания, США, триллер, драма, криминал, BDRip] Dub

в форуме Триллеры, Размер: 1.46 ГБ, Здоровье: 0%

Anonymous

0
0|0

36
0

20 фев 2014, 15:31

Anonymous Перейти к последнему сообщению



Сейчас этот форум просматривают: нет зарегистрированных пользователей и гости: 2


Вы не можете начинать темы
Вы не можете отвечать на сообщения
Вы не можете редактировать свои сообщения
Вы не можете удалять свои сообщения
Вы не можете добавлять вложения

Перейти:  

!ВНИМАНИЕ!
 Ресурс не предоставляет электронные версии произведений, а занимается лишь коллекционированием и каталогизацией ссылок, присылаемых и публикуемых на форуме нашими читателями. Если вы являетесь правообладателем какого-либо представленного материала и не желаете чтобы ссылка на него находилась в нашем каталоге, свяжитесь с нами и мы незамедлительно удалим её. Файлы для обмена на трекере предоставлены пользователями сайта, и администрация не несёт ответственности за их содержание. Просьба не заливать файлы, защищенные авторскими правами, а также файлы нелегального содержания!