На всех торрентах на трекере установлена скидка на скачивание в размере 100 процентов(а).
 Возможность скачивания торрента НЕ зависит от ограничений при низком ратио, низком аплоаде, требуемом ратио или требуемом аплоаде.


Начать новую тему Ответить на тему
Статистика раздачи
Размер: 1.45 ГБ | Добавлен: 02 апр 2014, 08:21 | Скачали: 0
Сидеров: 7  [0 байт/сек]    Личеров: 2  [0 байт/сек]
Пред. тема | След. тема 

Автор
Сообщение

СообщениеДобавлено: 02 апр 2014, 08:21 

Грешники и Святые / Sinners and Saints


Страна: США
Жанр: боевик, триллер, криминал
Год выпуска: 2010
Продолжительность: 01:43:22

Перевод: Любительский (одноголосый закадровый) [Ddok] (по переводу Mokum)

Cубтитры: нет
Режиссер: Уильям Кауфман / William Kaufman

В ролях: Шон Патрик Флэнери, Том Беренджер, Ким Коутс, Джолин Блэлок, Костас Мэндилор, Юрген Прохнов, Луис Мэндилор, Метод Мэн, Джонни Стронг, Джессика Хип

Описание: В разрушенном ураганом Новом Олеане, где все сложнее поддерживать закон и порядок, окруженный неприятностями детектив Шон Райли пытается справиться со смертью маленького сына и рухнувшим браком. Находясь под угрозой увольнения из полиции, он объединяется в команду с молодым детективом по расследованию убийств Уиллом Генцем, чтобы помочь ему разобраться с чередой зверских убийств, поставивиших город на грань войны банд. Райли и Генц быстро понимают, что за всем этим скрывается что-то более чудовищное, чем можно было себе представить.

Размер: 1/3 DVD
Исходник: BDRip 1080p

Качество видео: HDRip
Формат видео: AVI

Видео: 688x288 (2.39:1), 23.976 fps, XviD build 62 ~1603 kbps avg, 0.34 bit/pixel
Аудио: 48 kHz, AC3 Dolby Digital, 3/2 (L,C,R,l,r) + LFE ch, ~384.00 kbps avg


MediaInfo
General
Complete name : C:\Documents and Settings\Администратор\Рабочий стол\Sinners and Saints.HDRip.R.G.Torrents.Ru_Drek.avi
Format : AVI
Format/Info : Audio Video Interleave
File size : 1.45 GiB
Duration : 1h 44mn
Overall bit rate : 1 995 Kbps
Writing application : VirtualDubModRus 1.5.10.2 (build 2542/release)
Writing library : VirtualDubMod build 2542/release

Video
ID : 0
Format : MPEG-4 Visual
Format profile : Advanced Simple@L5
Format settings, BVOP : 1
Format settings, QPel : No
Format settings, GMC : No warppoints
Format settings, Matrix : Custom
Codec ID : XVID
Codec ID/Hint : XviD
Duration : 1h 44mn
Bit rate : 1 604 Kbps
Width : 688 pixels
Height : 288 pixels
Display aspect ratio : 2.40:1
Frame rate : 23.976 fps
Color space : YUV
Chroma subsampling : 4:2:0
Bit depth : 8 bits
Scan type : Progressive
Compression mode : Lossy
Bits/(Pixel*Frame) : 0.338
Stream size : 1.17 GiB (80%)
Writing library : XviD 62

Audio
ID : 1
Format : AC-3
Format/Info : Audio Coding 3
Mode extension : CM (complete main)
Codec ID : 2000
Duration : 1h 43mn
Bit rate mode : Constant
Bit rate : 384 Kbps
Channel(s) : 6 channels
Channel positions : Front: L C R, Side: L R, LFE
Sampling rate : 48.0 KHz
Bit depth : 16 bits
Compression mode : Lossy
Stream size : 284 MiB (19%)
Alignment : Split accross interleaves
Interleave, duration : 42 ms (1.01 video frame)
Interleave, preload duration : 500 ms
Скриншоты
[center]
загрузка...
Правила, инструкции, FAQ!!!
Торрент  Добавлен [02 апр 2014, 08:21] Скачать торрент
Скачать торрент
[ Размер 29.52 КБ / Просмотров 3 ]

Статус  
 
Размер  1.45 ГБ
Приватный: Нет (DHT включён)
.torrent скачан  0
Как залить торрент? | Как скачать Torrent? | Как смотреть и слушать онлайн?  


     Отправить личное сообщение
   
Страница 1 из 1
Показать сообщения за:  Поле сортировки  
Начать новую тему Ответить на тему

   Похожие торренты   Автор   Ответы   Просмотры   Последнее сообщение 
В этой теме нет новых непрочитанных сообщений. Скачать торрент Проверен [iPad] Святые из трущоб (Святые из Бундока) / The Boondock Saints (Трой Даффи) [1999 г., боевик, триллер, драма, комедия, криминал, BDRip]

в форуме Фильмы для iPod, iPhone, iPad, Размер: 2.87 ГБ, Здоровье: 100%

Гость

0
30|11

42
2

18 май 2015, 10:39

Гость Перейти к последнему сообщению

В этой теме нет новых непрочитанных сообщений. Скачать торрент Защита от дурака / Foolproof (Уильям Филлипс / William Phillips) [2003, боевик, триллер, комедия, криминал, HDTVRip] MVO

в форуме Боевики, Размер: 1.46 ГБ, Здоровье: 100%

Anonymous

0
7|2

29
0

22 апр 2014, 11:40

Anonymous Перейти к последнему сообщению

В этой теме нет новых непрочитанных сообщений. Скачать торрент Святые из бундока 2: День всех святых / The Boondock Saints II: All Saints Day (Трой Даффи / Troy Duffy) [2009 г., боевик, триллер, комедия, BDRip-AVC] [720p]

в форуме 720p | 1080p, Размер: 2.9 ГБ, Здоровье: 100%

Anonymous

0
34|11

47
0

01 апр 2014, 09:34

Anonymous Перейти к последнему сообщению

В этой теме нет новых непрочитанных сообщений. Скачать торрент Телохранитель / London Boulevard ( Уильям Монахэн / William Monahan) [2010, США, Великобритания, Триллер, мелодрама, криминал, DVDRip-AVC] Dub

в форуме Триллеры, Размер: 1.45 ГБ, Здоровье: 0%

Anonymous

0
0|0

52
0

02 апр 2014, 12:04

Anonymous Перейти к последнему сообщению

В этой теме нет новых непрочитанных сообщений. Скачать торрент Бульвары Лондона / Телохранитель / London Boulevard (Уильям Монахэн / William Monahan) [2010, США, Великобритания, Криминал, Триллер, BDRip] VO (Завгородний)

в форуме Криминал, Размер: 1.81 ГБ, Здоровье: 100%

Anonymous

0
10|3

102
0

02 апр 2014, 12:04

Anonymous Перейти к последнему сообщению



Сейчас этот форум просматривают: нет зарегистрированных пользователей и гости: 1


Вы не можете начинать темы
Вы не можете отвечать на сообщения
Вы не можете редактировать свои сообщения
Вы не можете удалять свои сообщения
Вы не можете добавлять вложения

Перейти:  

!ВНИМАНИЕ!
 Ресурс не предоставляет электронные версии произведений, а занимается лишь коллекционированием и каталогизацией ссылок, присылаемых и публикуемых на форуме нашими читателями. Если вы являетесь правообладателем какого-либо представленного материала и не желаете чтобы ссылка на него находилась в нашем каталоге, свяжитесь с нами и мы незамедлительно удалим её. Файлы для обмена на трекере предоставлены пользователями сайта, и администрация не несёт ответственности за их содержание. Просьба не заливать файлы, защищенные авторскими правами, а также файлы нелегального содержания!