На всех торрентах на трекере установлена скидка на скачивание в размере 100 процентов(а).
 Возможность скачивания торрента НЕ зависит от ограничений при низком ратио, низком аплоаде, требуемом ратио или требуемом аплоаде.


Начать новую тему Ответить на тему
Статистика раздачи
Размер: 744.68 МБ | Добавлен: 01 апр 2014, 09:37 | Скачали: 0
Сидеров: 7  [0 байт/сек]    Личеров: 2  [0 байт/сек]
Пред. тема | След. тема 

Автор
Сообщение

СообщениеДобавлено: 01 апр 2014, 09:37 

Стрелок
The Contractor

«The world's greatest marksman is now a marked man...»

Год выпуска: 2007
Страна: Болгария, Великобритания, США
Жанр: боевик, триллер, драма
Продолжительность: 01:38:29
Перевод: Профессиональный (многоголосый, закадровый)
Субтитры: нет
Режиссер: Йозеф Руснак / Josef Rusnak
Сценарий: Роберт Фостер / Robert Foster, Джошуа Майкл Штерн / Joshua Michael Stern, Роберт Кац / Robert Katz, Андре Фарважи / André Farwagi
Продюсер: Руди Коэн / Rudy Cohen, Дэвид Болл / David Ball, Рольф Дейл / Rolf Deyhle, Хенрик Хидтс / Henrik Huydts, Виктория Лукас / Victoria Lucas
Оператор: Ведиго фон Шульцендорфф / Wedigo von Schultzendorff
Композитор: Николас Пайк / Nicholas Pike
В ролях: Уэсли Снайпс (James Dial), Элиза Беннетт (Emily Day), Лина Хиди (DI Annette Ballard), Ральф Браун (Jeremy Collins), Чарльз Дэнс (DCS Andrew Windsor), Джемма Джонс (Mrs. Day), Иэйн Робертсон (Cramston), Ричард Хэррингтон (Terry Winchell), Райан МакКласки (Purcell), Джон Стэндинг (Sir Anthony), Станимир Стаматов (King), Милош Мирослав (Harris)
Описание: Отставной стрелок Джеймс Дайл, живет на своем ранчо в штате Монтана. В свое время он был лучшим снайпером ЦРУ, принимавшим участие в самых сложных и засекреченных операциях.
К нему наведывается бывшее начальство, чтобы поручить последнее дело - устранить приговоренного к суду террориста в Лондоне, который даже в случае обвинительного приговора способен продолжать свою деятельность из-за стен тюрьмы. То, что было бы обычной миссией для снайпера, превращается в кошмар, поскольку цена проигрыша в этой игре - жизнь самого Дайла.

MPAA: R - Лицам до 17 лет обязательно присутствие взрослого
Качество: BDRip / BDRemux
Контейнер: AVI
Видео: 624x352 (1.77:1), 23.976 fps, XviD build 65 ~919 kbps avg, 0.17 bit/pixel
Аудио: 48 kHz, MPEG Layer 3, 2 ch, ~128.00 kbps avg
MediaInfo
Код:
Код:
General
Complete name                            : E:\The.Contractor.2007.BDRip.MVO.All.Films.avi
Format                                   : AVI
Format/Info                              : Audio Video Interleave
File size                                : 745 MiB
Duration                                 : 1h 38mn
Overall bit rate                         : 1 057 Kbps
Movie name                               : The.Contractor.2007.BDRip.MVO.All.Films
Director                                 : DIABLO93
Genre                                    : Action
Writing application                      : VirtualDubMod 1.5.10.3 | www.virtualdub-fr.org || (build 2550/release)
Original source form/Name                : Movie
Copyright                                : Rutracker.org (R.G. All Films)

Video
ID                                       : 0
Format                                   : MPEG-4 Visual
Format profile                           : Advanced Simple@L5
Format settings, BVOP                    : 2
Format settings, QPel                    : No
Format settings, GMC                     : No warppoints
Format settings, Matrix                  : Custom
Codec ID                                 : XVID
Codec ID/Hint                            : XviD
Duration                                 : 1h 38mn
Bit rate                                 : 920 Kbps
Width                                    : 624 pixels
Height                                   : 352 pixels
Display aspect ratio                     : 16:9
Frame rate                               : 23.976 fps
Color space                              : YUV
Chroma subsampling                       : 4:2:0
Bit depth                                : 8 bits
Scan type                                : Progressive
Compression mode                         : Lossy
Bits/(Pixel*Frame)                       : 0.175
Stream size                              : 648 MiB (87%)
Writing library                          : XviD 65

Audio
ID                                       : 1
Format                                   : MPEG Audio
Format version                           : Version 1
Format profile                           : Layer 3
Codec ID                                 : 55
Codec ID/Hint                            : MP3
Duration                                 : 1h 38mn
Bit rate mode                            : Constant
Bit rate                                 : 128 Kbps
Channel(s)                               : 2 channels
Sampling rate                            : 48.0 KHz
Compression mode                         : Lossy
Stream size                              : 90.2 MiB (12%)
Alignment                                : Aligned on interleaves
Interleave, duration                     : 42 ms (1.00 video frame)
Interleave, preload duration             : 504 ms
Writing library                          : LAME3.99r
Encoding settings                        : -m s -V 4 -q 2 -lowpass 17 -b 128


Скриншоты
загрузка...
Правила, инструкции, FAQ!!!
Торрент  Добавлен [01 апр 2014, 09:37] Скачать торрент
Скачать торрент
[ Размер 15.15 КБ / Просмотров 23 ]

Статус  
 
Размер  744.68 МБ
Приватный: Нет (DHT включён)
.torrent скачан  0
Как залить торрент? | Как скачать Torrent? | Как смотреть и слушать онлайн?  


     Отправить личное сообщение
   
Страница 1 из 1
Показать сообщения за:  Поле сортировки  
Начать новую тему Ответить на тему

   Похожие торренты   Автор   Ответы   Просмотры   Последнее сообщение 
В этой теме нет новых непрочитанных сообщений. Скачать торрент Проверен Тринадцатый этаж / The Thirteenth Floor (Йозеф Руснак / Josef Rusnak) [1999, фантастика, триллер, детектив, BDRip, 480p] DUB, Original + sub(rus, eng)

в форуме Фильмы для iPod, iPhone, iPad, Размер: 1.17 ГБ, Здоровье: 100%

Гость

0
7|2

23
0

14 май 2015, 00:00

Гость Перейти к последнему сообщению

В этой теме нет новых непрочитанных сообщений. Скачать торрент Проверен [iPod] Стрелок / Shooter (Антуан Фукуа) [2007 г., боевик, триллер, криминал, детектив, BDRip]

в форуме Фильмы для iPod, iPhone, iPad, Размер: 580.22 МБ, Здоровье: 100%

Anonymous

0
1|0

36
1

18 май 2015, 10:46

Anonymous Перейти к последнему сообщению

В этой теме нет новых непрочитанных сообщений. Скачать торрент Стрелок / Shooter (Антуан Фукуа /Antoine Fuqua) [2007 г., боевик, триллер, криминал, детектив, BDRip]

в форуме Боевики, Размер: 2.85 ГБ, Здоровье: 0%

Anonymous

0
0|0

64
0

17 фев 2014, 08:05

Anonymous Перейти к последнему сообщению

В этой теме нет новых непрочитанных сообщений. Скачать торрент Бронсон / Bronson (Николас Виндинг Рёфн / Nicolas Winding Refn) [2008, Великобритания, боевик, триллер, драма, криминал, биография, BDRip]

в форуме Боевики, Размер: 830.56 МБ, Здоровье: 100%

Anonymous

0
2|1

33
0

02 апр 2014, 12:07

Anonymous Перейти к последнему сообщению

В этой теме нет новых непрочитанных сообщений. Скачать торрент Проверен [iPad] Не брать живым / Green Zone (Пол Гринграсс / Paul Greengrass ) [2010, Великобритания, Боевик, триллер, драма, военный, BDRip, SD (576p)] DUB + Original + sub (rus, eng)

в форуме Фильмы для iPod, iPhone, iPad, Размер: 2.39 ГБ, Здоровье: 100%

Гость

0
5|2

45
0

18 май 2015, 10:50

Гость Перейти к последнему сообщению



Сейчас этот форум просматривают: нет зарегистрированных пользователей и гости: 1


Вы не можете начинать темы
Вы не можете отвечать на сообщения
Вы не можете редактировать свои сообщения
Вы не можете удалять свои сообщения
Вы не можете добавлять вложения

Перейти:  

!ВНИМАНИЕ!
 Ресурс не предоставляет электронные версии произведений, а занимается лишь коллекционированием и каталогизацией ссылок, присылаемых и публикуемых на форуме нашими читателями. Если вы являетесь правообладателем какого-либо представленного материала и не желаете чтобы ссылка на него находилась в нашем каталоге, свяжитесь с нами и мы незамедлительно удалим её. Файлы для обмена на трекере предоставлены пользователями сайта, и администрация не несёт ответственности за их содержание. Просьба не заливать файлы, защищенные авторскими правами, а также файлы нелегального содержания!