На всех торрентах на трекере установлена скидка на скачивание в размере 100 процентов(а).
 Возможность скачивания торрента НЕ зависит от ограничений при низком ратио, низком аплоаде, требуемом ратио или требуемом аплоаде.


Начать новую тему Ответить на тему
Статистика раздачи
Размер: 976.63 МБ | Добавлен: 17 фев 2014, 08:06 | Скачали: 0
Сидеров: 2  [0 байт/сек]    Личеров: 1  [0 байт/сек]
Пред. тема | След. тема 

Автор
Сообщение

СообщениеДобавлено: 17 фев 2014, 08:06 

Страна: США
Жанр: Боевик, Приключения, Фантастика, Триллер
Год выпуска: 2007
Продолжительность: 02:23:27

Перевод: Авторский (одноголосый закадровый) А. Гаврилов + Ю. Немахов

Cубтитры: нет
Режиссер: Майкл Бэй / Michael Bay
Сценарий: Роберто Орси, Алекс Куртцман, Джон Роджерс
Продюсер: Дон Мерфи, Йен Брюс, Том ДеСанто
Оператор: Митчел Амундсен
Композитор: Стив Яблонски
Художник: Джефф Манн, Франсуа Одуи, Бит Фрутигер
монтаж: Том Малдун, Пол Рубелл, Глен Скэнтлебери

В ролях: Шайа ЛаБаф /Shia LaBeouf/, Меган Фокс /Megan Fox/, Джош Дюамель /Josh Duhamel/, Рэйчел Тейлор /Rachael Taylor/, Тайрез Гибсон /Tyrese Gibson/, Джон Войт /Jon Voight/

Описание: В течение многих столетий две расы роботов-инопланетян — Автоботы и Десептиконы — вели войну, ставкой в которой была судьба Bселенной. И вот война докатилась до Земли. В то время, когда силы зла ищут ключ к верховной власти, наш последний шанс на спасение находится в руках юного землянина. Единственное, что стоит между несущими зло Десептиконами и высшей властью — это ключ, находящийся в руках простого парнишки.
Обычный подросток, Сэм Уитвикки озабочен повседневными хлопотами — школа, друзья, машины, девочки. Не ведая о том, что он является последним шансом человечества на спасение, Сэм вместе со своей подругой Микаэлой оказываются вовлеченными в противостояние Автоботов и Десептиконов. Только тогда Сэм понимает истинное значение семейного девиза Уитвикки — «нет жертв, нет победы!»


Исходник: BDRip 1080p

Качество видео: HDRip
Формат видео: AVI

Видео: 640x272 (2.35:1), 23.976 fps, XviD build 62 ~972 kbps avg, 0.23 bit/pixel
Аудио 1: 44.100 kHz, MPEG Layer 3, 2 ch, ~112.00 kbps avg \ Гаврилов
Аудио 2: 44.100 kHz, MPEG Layer 3, 2 ch, ~112.00 kbps avg \ Немахов
бюджет $150 000 000

сборы в США $319 246 193
сборы в мире + $389 026 388 = $708 272 581
сборы в России $15 284 05
DVD в США $290 277 403
зрители
46.4 млн, 9.31 млн, 7.35 млн
премьера (мир) 12 июня 2007
премьера (РФ) 4 июля 2007, «UPI»
релиз на Blu-Ray 28 апреля 2009, «Юниверсал Пикчерс Рус»
релиз на DVD 14 декабря 2010, «Юниверсал Пикчерс Рус»
[/b]
MediaInfo
Complete name : C:\Documents and Settings\Администратор\Рабочий стол\Transformers.HDRip.R.G.Toorrents.Ru_Drek.avi
Format : AVI
Format/Info : Audio Video Interleave
File size : 977 MiB
Duration : 2h 23mn
Overall bit rate : 952 Kbps
Writing application : VirtualDubModRus 1.5.10.2 (build 2542/release)
Writing library : VirtualDubMod build 2542/release

Video
ID : 0
Format : MPEG-4 Visual
Format profile : Advanced Simple@L5
Format settings, BVOP : 1
Format settings, QPel : No
Format settings, GMC : No warppoints
Format settings, Matrix : Custom
Codec ID : XVID
Codec ID/Hint : XviD
Duration : 2h 23mn
Bit rate : 714 Kbps
Width : 640 pixels
Height : 272 pixels
Display aspect ratio : 2.35:1
Frame rate : 23.976 fps
Color space : YUV
Chroma subsampling : 4:2:0
Bit depth : 8 bits
Scan type : Progressive
Compression mode : Lossy
Bits/(Pixel*Frame) : 0.171
Stream size : 732 MiB (75%)
Writing library : XviD 62

Audio #1
ID : 1
Format : MPEG Audio
Format version : Version 1
Format profile : Layer 3
Codec ID : 55
Codec ID/Hint : MP3
Duration : 2h 23mn
Bit rate mode : Constant
Bit rate : 112 Kbps
Channel(s) : 2 channels
Sampling rate : 44.1 KHz
Compression mode : Lossy
Stream size : 115 MiB (12%)
Alignment : Split accross interleaves
Interleave, duration : 42 ms (1.00 video frame)
Interleave, preload duration : 500 ms
Writing library : LAME3.98r
Encoding settings : -m s -V 4 -q 2 -lowpass 15.6 -b 112

Audio #2
ID : 2
Format : MPEG Audio
Format version : Version 1
Format profile : Layer 3
Codec ID : 55
Codec ID/Hint : MP3
Duration : 2h 23mn
Bit rate mode : Constant
Bit rate : 112 Kbps
Channel(s) : 2 channels
Sampling rate : 44.1 KHz
Compression mode : Lossy
Stream size : 115 MiB (12%)
Alignment : Split accross interleaves
Interleave, duration : 42 ms (1.00 video frame)
Interleave, preload duration : 500 ms
Writing library : LAME3.98r
Encoding settings : -m s -V 4 -q 2 -lowpass 15.6 -b 112

загрузка...
Правила, инструкции, FAQ!!!
Торрент  Добавлен [17 фев 2014, 08:06] Скачать торрент
Скачать торрент
[ Размер 38.67 КБ / Просмотров 8 ]

Статус  
 
Размер  976.63 МБ
Приватный: Нет (DHT включён)
.torrent скачан  0
Как залить торрент? | Как скачать Torrent? | Как смотреть и слушать онлайн?  


     Отправить личное сообщение
   
Страница 1 из 1
Показать сообщения за:  Поле сортировки  
Начать новую тему Ответить на тему

   Похожие торренты   Автор   Ответы   Просмотры   Последнее сообщение 
В этой теме нет новых непрочитанных сообщений. Скачать торрент Трансформеры / Transformers (Майкл Бэй / Michael Bay) [2007 г., Боевик, Приключения, Фантастика, Триллер, HDRip] Dub

в форуме Боевики, Размер: 2.18 ГБ, Здоровье: 100%

Anonymous

0
56|19

136
0

17 май 2014, 20:05

Anonymous Перейти к последнему сообщению

В этой теме нет новых непрочитанных сообщений. Скачать торрент Трансформеры: Месть падших / Transformers: Revenge of the Fallen (Майкл Бэй / Michael Bay) [2009, США, фантастика, боевик, приключения, BDRip-AVC]

в форуме 720p | 1080p, Размер: 5.26 ГБ, Здоровье: 100%

Anonymous

0
18|6

112
0

17 фев 2014, 11:44

Anonymous Перейти к последнему сообщению

В этой теме нет новых непрочитанных сообщений. Скачать торрент Проверен [iPhone] Джеймс Бонд. Агент 007: И целого мира мало / James Bond: The World Is Not Enough (Майкл Эптид / Michael Apted) [1999, Боевик, триллер, криминал, приключения, HDRip, 480x200]

в форуме Фильмы для iPod, iPhone, iPad, Размер: 711.92 МБ, Здоровье: 100%

Anonymous

0
8|3

47
0

14 май 2015, 00:03

Anonymous Перейти к последнему сообщению

В этой теме нет новых непрочитанных сообщений. Скачать торрент Соломон Кейн / Solomon Kane (Майкл Дж. Бассетт / Michael J. Bassett) [2009 г., боевик, фэнтези, приключения, HDRip] DVO (TWIX)

в форуме Боевики, Размер: 743.2 МБ, Здоровье: 100%

Anonymous

0
1|0

38
0

11 фев 2014, 09:15

Anonymous Перейти к последнему сообщению

В этой теме нет новых непрочитанных сообщений. Скачать торрент Пристрели их / Shoot 'Em Up (Майкл Дэвис / Michael Davis) [2007 г., комедийный боевик, HDRip] MVO (Kravec)

в форуме Боевики, Размер: 745.03 МБ, Здоровье: 0%

Anonymous

0
0|0

35
0

13 фев 2014, 06:33

Anonymous Перейти к последнему сообщению



Сейчас этот форум просматривают: нет зарегистрированных пользователей и гости: 2


Вы не можете начинать темы
Вы не можете отвечать на сообщения
Вы не можете редактировать свои сообщения
Вы не можете удалять свои сообщения
Вы не можете добавлять вложения

Перейти:  

!ВНИМАНИЕ!
 Ресурс не предоставляет электронные версии произведений, а занимается лишь коллекционированием и каталогизацией ссылок, присылаемых и публикуемых на форуме нашими читателями. Если вы являетесь правообладателем какого-либо представленного материала и не желаете чтобы ссылка на него находилась в нашем каталоге, свяжитесь с нами и мы незамедлительно удалим её. Файлы для обмена на трекере предоставлены пользователями сайта, и администрация не несёт ответственности за их содержание. Просьба не заливать файлы, защищенные авторскими правами, а также файлы нелегального содержания!