На всех торрентах на трекере установлена скидка на скачивание в размере 100 процентов(а).
 Возможность скачивания торрента НЕ зависит от ограничений при низком ратио, низком аплоаде, требуемом ратио или требуемом аплоаде.


Начать новую тему Ответить на тему
Статистика раздачи
Размер: 1.46 ГБ | Добавлен: 16 фев 2014, 13:01 | Скачали: 0
Сидеров: 0  [0 байт/сек]    Личеров: 0  [0 байт/сек]
Пред. тема | След. тема 

Автор
Сообщение

СообщениеДобавлено: 16 фев 2014, 13:01 

Год выпуска: 2011
Выпущено: Индонезия, США / Celluloid Dreams
Жанр: боевик, триллер, криминал
Продолжительность: 01:41:04
Перевод: Профессиональный (полное дублирование)
RUS BD _Саундтрек - Майк Шинода_
Cубтитры: нет
Режиссер:
Гарет Эванс / Gareth Evans
В ролях:
Ико Ювайс (Rama), Джо Таслим (Jaka), Дони Аламсях (Andi), Яян Рухьян (Mad Dog), Пьер Грюно (Wahyu), Рэй Сахетапи (Tama), Тегар Сатрия (Bowo), Ианг Дармаван (Gofar), Эка «Пиранья» Рахмадия (Dagu), Верди Солайман (Budi), Альфридиус Годфред (Machete Gang #1)
Описание:
Отряд спецназовцев получает задание проникнуть в многоэтажный дом, расположенный в самом сердце трущоб Джакарты, и арестовать обосновавшегося там наркобарона, которого охраняет целая армия вооруженных до зубов головорезов. Операцию нужно провести без лишнего шума, но нелепая случайность нарушает планы служителей закона. Теперь бойцам негде спрятаться и некуда бежать. Перед ними 30 этажей ада, где смертью грозит каждый неверный шаг. Война по правилам кончилась. Выживает сильнейший!



Качество: BDRip [The.Raid.Redemption.2011.BDRemux.1080p.HDCLUB]
Формат: AVI

Видео: 688x384 (1.79:1), 23.976 fps, XviD build 73 ~1606 kbps avg, 0.25 bit/pixel
Аудио: 48 kHz, AC3 Dolby Digital, 3/2 (L,C,R,l,r) + LFE ch, ~448.00 kbps avg
Скриншоты
MediaInfo
Код:
Код:
General
Complete name                            : D:\Reid_2011_BDRip_by_Dalemake.avi
Format                                   : AVI
Format/Info                              : Audio Video Interleave
File size                                : 1.46 GiB
Duration                                 : 1h 41mn
Overall bit rate                         : 2 064 Kbps
Writing application                      : VirtualDubMod 1.5.10.3 | www.virtualdub-fr.org || (build 2550/release)
Writing library                          : VirtualDubMod build 2550/release

Video
ID                                       : 0
Format                                   : MPEG-4 Visual
Format profile                           : Advanced Simple@L5
Format settings, BVOP                    : 1
Format settings, QPel                    : No
Format settings, GMC                     : No warppoints
Format settings, Matrix                  : Custom
Codec ID                                 : XVID
Codec ID/Hint                            : XviD
Duration                                 : 1h 41mn
Bit rate                                 : 1 607 Kbps
Width                                    : 688 pixels
Height                                   : 384 pixels
Display aspect ratio                     : 16:9
Frame rate                               : 23.976 fps
Color space                              : YUV
Chroma subsampling                       : 4:2:0
Bit depth                                : 8 bits
Scan type                                : Progressive
Compression mode                         : Lossy
Bits/(Pixel*Frame)                       : 0.254
Stream size                              : 1.13 GiB (78%)
Writing library                          : XviD 73

Audio
ID                                       : 1
Format                                   : AC-3
Format/Info                              : Audio Coding 3
Mode extension                           : CM (complete main)
Format settings, Endianness              : Big
Codec ID                                 : 2000
Duration                                 : 1h 41mn
Bit rate mode                            : Constant
Bit rate                                 : 448 Kbps
Channel(s)                               : 6 channels
Channel positions                        : Front: L C R, Side: L R, LFE
Sampling rate                            : 48.0 KHz
Bit depth                                : 16 bits
Compression mode                         : Lossy
Stream size                              : 324 MiB (22%)
Alignment                                : Split accross interleaves
Interleave, duration                     : 42 ms (1.00 video frame)
Interleave, preload duration             : 500 ms


загрузка...
Правила, инструкции, FAQ!!!
Торрент  Добавлен [16 фев 2014, 13:01] Скачать торрент
Скачать торрент
[ Размер 15.18 КБ / Просмотров 4 ]

Статус  
 
Размер  1.46 ГБ
Приватный: Нет (DHT включён)
.torrent скачан  0
Как залить торрент? | Как скачать Torrent? | Как смотреть и слушать онлайн?  


     Отправить личное сообщение
   
Страница 1 из 1
Показать сообщения за:  Поле сортировки  
Начать новую тему Ответить на тему

   Похожие торренты   Автор   Ответы   Просмотры   Последнее сообщение 
В этой теме нет новых непрочитанных сообщений. Скачать торрент Проверен Gareth Knight / Гарет Найт - A Practical Guide To Qabalistic Symbolism / Практическое пособие по символизму Каббалы [1978, PDF, ENG]

в форуме Эзотерика, гадания, магия, фен-шуй, Размер: 25.92 МБ, Здоровье: 100%

Anonymous

0
51|2

6
3

28 авг 2016, 22:04

Anonymous Перейти к последнему сообщению

В этой теме нет новых непрочитанных сообщений. Скачать торрент Часто задаваемые вопросы о путешествиях во времени / Frequently Asked Questions About Time Travel (Гарет Карривик / Gareth Carrivich) [2009 г., Комедия, Фантастика, DVDRip-AVC] [AVO + Original]

в форуме 720p | 1080p, Размер: 745.29 МБ, Здоровье: 100%

Anonymous

0
3|0

123
0

11 фев 2014, 09:16

Anonymous Перейти к последнему сообщению

В этой теме нет новых непрочитанных сообщений. Скачать торрент Проверен [iPad] Время / In Time (Эндрю Никкол/ Andrew Niccol) [2011, США, Фантастика, триллер, криминал, BDRip, 576p] Dub + Original + rus sub

в форуме Фильмы для iPod, iPhone, iPad, Размер: 1.89 ГБ, Здоровье: 100%

Anonymous

0
12|4

46
0

11 май 2015, 01:42

Anonymous Перейти к последнему сообщению

В этой теме нет новых непрочитанных сообщений. Скачать торрент Проверен [iPhone] Время / In Time (Эндрю Никкол / Andrew Niccol) [2011 г., фантастика, триллер, драма, мелодрама, криминал, BDRip, 480x200]

в форуме Фильмы для iPod, iPhone, iPad, Размер: 553.43 МБ, Здоровье: 100%

Anonymous

0
5|1

52
0

11 май 2015, 01:42

Anonymous Перейти к последнему сообщению

В этой теме нет новых непрочитанных сообщений. Скачать торрент Проверен [iPad] Линкольн для адвоката / The Lincoln Lawyer (Брэд Фурман / Brad Furman) [2011, США, триллер, драма, криминал, BDRip 720p]

в форуме Фильмы для iPod, iPhone, iPad, Размер: 3.16 ГБ, Здоровье: 100%

Гость

0
55|14

12
1

11 май 2015, 01:32

Гость Перейти к последнему сообщению



Сейчас этот форум просматривают: нет зарегистрированных пользователей и гости: 1


Вы не можете начинать темы
Вы не можете отвечать на сообщения
Вы не можете редактировать свои сообщения
Вы не можете удалять свои сообщения
Вы не можете добавлять вложения

Перейти:  

!ВНИМАНИЕ!
 Ресурс не предоставляет электронные версии произведений, а занимается лишь коллекционированием и каталогизацией ссылок, присылаемых и публикуемых на форуме нашими читателями. Если вы являетесь правообладателем какого-либо представленного материала и не желаете чтобы ссылка на него находилась в нашем каталоге, свяжитесь с нами и мы незамедлительно удалим её. Файлы для обмена на трекере предоставлены пользователями сайта, и администрация не несёт ответственности за их содержание. Просьба не заливать файлы, защищенные авторскими правами, а также файлы нелегального содержания!