На всех торрентах на трекере установлена скидка на скачивание в размере 100 процентов(а).
 Возможность скачивания торрента НЕ зависит от ограничений при низком ратио, низком аплоаде, требуемом ратио или требуемом аплоаде.


Начать новую тему Ответить на тему
Статистика раздачи
Размер: 1.46 ГБ | Добавлен: 13 фев 2014, 11:40 | Скачали: 0
Сидеров: 34  [0 байт/сек]    Личеров: 11  [0 байт/сек]
Пред. тема | След. тема 

Автор
Сообщение

СообщениеДобавлено: 13 фев 2014, 11:40 

Пипец /
KICK-ASS
«Заткнись. Мочи.»
Страна: США, Великобритания
Студии: Marv Films, Plan B Entertainment
Жанр: боевик, триллер, криминал
Год выпуска: 2010
Продолжительность: 01:57:44
Перевод: авторский (одноголосый закадровый) Д. "Гоблин" Пучков (без цензуры)
Субтитры: нет
Режиссёр: Мэттью Вон / Matthew Vaughn
В ролях: Аарон Джонсон, Кристофер Минц-Плассе, Марк Стронг, Хлоя Моретц, Николас Кейдж, Гэррет М. Браун, Кларк Дьюк, Ивэн Питерс, Дебора Твисс, Линдси Фонсека, Софи Ву, Элизабет МакГоверн, Стю «Ладж» Райли.
Описание:

Главный герой — школьник Дэйв Лизевски, который, вырядившись в костюм супергероя, пытается бороться с преступниками, хотя не обладает для этого никакими способностями. Параллельно два персонажа — 11-летняя девочка, которая крошит гангстеров мечом и сынок гангстера, ведущий собственное расследование, пытаются выяснить личность Дэйва…
7.9/10 (205306) 7.157 (58703)




Качество видео: BDRip
[font=Georgia]Формат файла:
AVI

Видео: XviD, 720x304 (2.35:1), 23.976 fps, 1381 kbps avg, 0.263 bit/pixel
Аудио: 48 kHz, AC3 Dolby Digital, 3/2 (L,C,R,l,r) + LFE ch, 384 kbps avg (Rus AVO "Гоблин")
MediaInfo
Общее
Полное имя : D:\Torrent Rutracker\Kick-Ass.2010.AVO.Goblin.XviD.AC3.BDRip._by.ZNG505_.avi
Формат : AVI
Формат/Информация : Audio Video Interleave
Размер файла : 1,46 Гбайт
Продолжительность : 1 ч. 57 м.
Общий поток : 1774 Кбит/сек
Программа кодирования : VirtualDubModRus 1.5.10.2 (build 2542/release)
Библиотека кодирования : VirtualDubMod build 2542/release

Видео
Идентификатор : 0
Формат : MPEG-4 Visual
Профиль формата : Advanced Simple@L5
Параметр BVOP формата : 1
Параметр QPel формата : Нет
Параметр GMC формата : Без точки перехода
Параметр матрицы формата : Выборочная
Идентификатор кодека : XVID
Идентификатор кодека/Подсказка : XviD
Продолжительность : 1 ч. 57 м.
Битрейт : 1381 Кбит/сек
Ширина : 720 пикселей
Высота : 304 пикселя
Соотношение сторон : 2,35:1
Частота кадров : 23,976 кадра/сек
Цветовое пространство : YUV
Субдискретизация насыщенности : 4:2:0
Битовая глубина : 8 бит
Тип развёртки : Прогрессивная
Метод сжатия : С потерями
Бит/(Пиксели*Кадры) : 0.263
Размер потока : 1,14 Гбайт (78%)
Библиотека кодирования : XviD 65

Аудио
Идентификатор : 1
Формат : AC-3
Формат/Информация : Audio Coding 3
Расширение режима : CM (complete main)
Идентификатор кодека : 2000
Продолжительность : 1 ч. 57 м.
Вид битрейта : Постоянный
Битрейт : 384 Кбит/сек
Каналы : 6 каналов
Расположение каналов : Front: L C R, Side: L R, LFE
Частота : 48,0 КГц
Битовая глубина : 16 бит
Метод сжатия : С потерями
Размер потока : 323 Мбайт (22%)
Выравнивание : Разделение по промежуткам
Продолжительность промежутка : 42 мс. (1,00 видеокадр)
Время предзагрузки промежутка : 500 мс.
Заголовок : AVO "Гоблин"
Скриншоты
загрузка...
Правила, инструкции, FAQ!!!
Торрент  Добавлен [13 фев 2014, 11:40] Скачать торрент
Скачать торрент
[ Размер 15.12 КБ / Просмотров 10 ]

Статус  
 
Размер  1.46 ГБ
Приватный: Нет (DHT включён)
.torrent скачан  0
Как залить торрент? | Как скачать Torrent? | Как смотреть и слушать онлайн?  


     Отправить личное сообщение
   
Страница 1 из 1
Показать сообщения за:  Поле сортировки  
Начать новую тему Ответить на тему

   Похожие торренты   Автор   Ответы   Просмотры   Последнее сообщение 
В этой теме нет новых непрочитанных сообщений. Скачать торрент Пипец / Kick-Ass (Мэттью Вон / Matthew Vaughn) [2010, США, Великобритания, боевик, триллер, криминал, комедия, HDRip-AVC] DUB

в форуме Боевики, Размер: 1.57 ГБ, Здоровье: 100%

Anonymous

0
27|9

44
0

02 апр 2014, 12:05

Anonymous Перейти к последнему сообщению

В этой теме нет новых непрочитанных сообщений. Скачать торрент Пипец / Kick-Ass (Мэттью Вон / Matthew Vaughn) [2010, США, Великобритания, боевик, триллер, криминал, комедия, HDRip-AVC] DUB + Original (Eng) + Subs (6xRus,2xEng)

в форуме 720p | 1080p, Размер: 808.32 МБ, Здоровье: 100%

Anonymous

0
16|5

34
0

13 фев 2014, 06:33

Anonymous Перейти к последнему сообщению

В этой теме нет новых непрочитанных сообщений. Скачать торрент Проверен [iPad] Kingsman: Секретная служба / Kingsman: The Secret Service (Мэттью Вон / Matthew Vaughn ) [2014, Великобритания, Боевик, комедия, криминал, приключения, HDTVRip, SD (576p)] DUB + Original

в форуме Фильмы для iPod, iPhone, iPad, Размер: 2.26 ГБ, Здоровье: 100%

Гость

0
57|19

32
3

12 май 2015, 00:12

Гость Перейти к последнему сообщению

В этой теме нет новых непрочитанных сообщений. Скачать торрент Проверен Слоеный торт / Layer Cake (Мэттью Вон / Matthew Vaughn) [2004 г., триллер, драма, криминал, HDRip]

в форуме Триллеры, Размер: 1.46 ГБ, Здоровье: 100%

Гость

0
56|19

53
1

24 ноя 2014, 22:20

Гость Перейти к последнему сообщению

В этой теме нет новых непрочитанных сообщений. Скачать торрент Проверен [iPad] Звездная пыль / Stardust (Мэттью Вон/ Matthew Vaughn) [2007, США, Великобритания, Фэнтези, мелодрама, семейный, BDRip, 576p] Dub + Original + sub (rus, eng)

в форуме Фильмы для iPod, iPhone, iPad, Размер: 2.22 ГБ, Здоровье: 100%

Anonymous

0
35|11

22
0

11 май 2015, 01:42

Anonymous Перейти к последнему сообщению



Сейчас этот форум просматривают: нет зарегистрированных пользователей и гости: 1


Вы не можете начинать темы
Вы не можете отвечать на сообщения
Вы не можете редактировать свои сообщения
Вы не можете удалять свои сообщения
Вы не можете добавлять вложения

Перейти:  

!ВНИМАНИЕ!
 Ресурс не предоставляет электронные версии произведений, а занимается лишь коллекционированием и каталогизацией ссылок, присылаемых и публикуемых на форуме нашими читателями. Если вы являетесь правообладателем какого-либо представленного материала и не желаете чтобы ссылка на него находилась в нашем каталоге, свяжитесь с нами и мы незамедлительно удалим её. Файлы для обмена на трекере предоставлены пользователями сайта, и администрация не несёт ответственности за их содержание. Просьба не заливать файлы, защищенные авторскими правами, а также файлы нелегального содержания!