На всех торрентах на трекере установлена скидка на скачивание в размере 100 процентов(а).
 Возможность скачивания торрента НЕ зависит от ограничений при низком ратио, низком аплоаде, требуемом ратио или требуемом аплоаде.


Начать новую тему Ответить на тему
Статистика раздачи
Размер: 3.22 ГБ | Добавлен: 12 фев 2014, 08:18 | Скачали: 0
Сидеров: 32  [0 байт/сек]    Личеров: 11  [0 байт/сек]
Пред. тема | След. тема 

Автор
Сообщение

СообщениеДобавлено: 12 фев 2014, 08:18 

Соломон Кейн / Solomon Kane

Страна: Франция, Великобритания, Чехия
Жанр: боевик, фэнтези, приключения
Год выпуска: 2009
Продолжительность: 01:44:10

Перевод 1: Профессиональный (дублированный)
Перевод 2: Авторский (одноголосый закадровый) (Ю.Немахов)
Перевод 3: Профессиональный (дублированный) (Украинский)
Cубтитры: русские, русские (voronine), украинские, английские
Оригинальная аудиодорожка: английский

Режиссер: Майкл Дж. Бассетт / Michael J. Bassett

В ролях: Джеймс Пьюрфой, Марк О’Нил, Роберт Орр, Ричард Райан, Франтишек Дик, Кристиан Данкли Кларк, Йен Уайт, Томас МакЕнчрой, Эндрю Уитлоу, Роберт Расселл

Описание: По мотивам рассказов Роберта Ирвина Говарда. Соломон Кейн — английский солдат XVI века, который осознал, что его бесчеловечные и жестокие поступки навечно прокляли его душу. Вознамерившись искупить свои грехи, Кейн клянется жить в мире и добродетели, но когда на землю ступают темные силы, ему не остается ничего, как дать бой.
Автор рипа: avatar-aang





Качество видео: BDRip-AVC
Формат видео: MKV

Видео: 1120x476 (2.35:1), 24 fps, AVC ~2643 kbps avg, 0.207 bit/pixel
Аудио 1: 48 kHz, AC3 Dolby Digital, 3/2 (L,C,R,l,r) + LFE ch, ~448.00 kbps avg rus |Rus|
Аудио 2: 48 kHz, AC3 Dolby Digital, 3/2 (L,C,R,l,r) + LFE ch, ~448.00 kbps avg rus |Avo|
Аудио 3: 48 kHz, AC3 Dolby Digital, 3/2 (L,C,R,l,r) + LFE ch, ~448.00 kbps avg rus |Ukr|
Аудио 4: 48 kHz, AC3 Dolby Digital, 3/2 (L,C,R,l,r) + LFE ch, ~448.00 kbps avg rus |Eng|
MediaInfo / log
log
x264 [info]: frame I:1378 Avg QP:14.98 size: 75736
x264 [info]: frame P:33576 Avg QP:17.65 size: 25665
x264 [info]: frame B:115046 Avg QP:19.89 size: 9518
x264 [info]: consecutive B-frames: 2.4% 2.7% 8.6% 18.7% 16.8% 37.0% 5.2% 5.6% 2.5% 0.6%
x264 [info]: mb I I16..4: 11.4% 67.7% 20.9%
x264 [info]: mb P I16..4: 2.9% 13.5% 1.8% P16..4: 45.9% 23.1% 4.8% 0.4% 0.3% skip: 7.2%
x264 [info]: mb B I16..4: 0.2% 1.0% 0.2% B16..8: 39.4% 11.7% 3.2% direct: 7.7% skip:36.5% L0:44.6% L1:44.9% BI:10.5%
x264 [info]: 8x8 transform intra:72.9% inter:61.1%
x264 [info]: direct mvs spatial:97.9% temporal:2.1%
x264 [info]: coded y,uvDC,uvAC intra: 81.1% 71.1% 46.0% inter: 29.1% 25.7% 2.7%
x264 [info]: i16 v,h,dc,p: 44% 13% 13% 30%
x264 [info]: i8 v,h,dc,ddl,ddr,vr,hd,vl,hu: 9% 7% 7% 10% 14% 14% 13% 12% 13%
x264 [info]: i4 v,h,dc,ddl,ddr,vr,hd,vl,hu: 10% 6% 7% 10% 16% 14% 13% 12% 13%
x264 [info]: i8c dc,h,v,p: 46% 23% 19% 13%
x264 [info]: Weighted P-Frames: Y:19.8% UV:12.8%
x264 [info]: ref P L0: 43.3% 10.5% 17.6% 7.5% 5.6% 4.3% 3.5% 2.1% 1.9% 1.6% 1.5% 0.5% 0.1%
x264 [info]: ref B L0: 71.5% 12.3% 5.8% 3.0% 2.2% 2.0% 1.5% 0.9% 0.5% 0.2%
x264 [info]: ref B L1: 92.7% 7.3%
x264 [info]: kb/s:2638.22

x264 [total]: encoded 150000 frames, 2.25 fps, 2638.22 kb/s
General
Complete name : C:\solomon_keyn.mkv
Format : Matroska
File size : 3.22 GiB
Duration : 1h 44mn
Overall bit rate : 4 430 Kbps
Encoded date : UTC 2011-03-17 09:27:30
Writing application : mkvmerge v4.4.0 ('Die Wiederkehr') сборка от Oct 31 2010 21:52:48
Writing library : libebml v1.0.0 + libmatroska v1.0.0

Video
ID : 1
Format : AVC
Format/Info : Advanced Video Codec
Format profile : High@L4.1
Format settings, CABAC : Yes
Format settings, ReFrames : 11 frames
Codec ID : V_MPEG4/ISO/AVC
Duration : 1h 44mn
Bit rate : 2 643 Kbps
Width : 1 120 pixels
Height : 476 pixels
Display aspect ratio : 2.35:1
Frame rate : 24.000 fps
Color space : YUV
Chroma subsampling : 4:2:0
Bit depth : 8 bits
Scan type : Progressive
Bits/(Pixel*Frame) : 0.207
Stream size : 1.86 GiB (58%)
Writing library : x264 core 110 r1804 e89c4cf
Encoding settings : cabac=1 / ref=11 / deblock=1:-2:-1 / analyse=0x3:0x133 / me=umh / subme=9 / psy=1 / psy_rd=0.90:0.10 / mixed_ref=1 / me_range=32 / chroma_me=1 / trellis=2 / 8x8dct=1 / cqm=0 / deadzone=21,11 / fast_pskip=0 / chroma_qp_offset=-3 / threads=6 / sliced_threads=0 / nr=0 / decimate=1 / interlaced=0 / constrained_intra=0 / bframes=9 / b_pyramid=2 / b_adapt=2 / b_bias=0 / direct=3 / weightb=1 / open_gop=0 / weightp=2 / keyint=250 / keyint_min=23 / scenecut=40 / intra_refresh=0 / rc=2pass / mbtree=0 / bitrate=2643 / ratetol=1.0 / qcomp=0.70 / qpmin=0 / qpmax=51 / qpstep=4 / cplxblur=20.0 / qblur=0.5 / ip_ratio=1.40 / pb_ratio=1.30 / aq=2:0.90
Language : English

Audio #1
ID : 2
Format : AC-3
Format/Info : Audio Coding 3
Mode extension : CM (complete main)
Muxing mode : Header stripping
Codec ID : A_AC3
Duration : 1h 44mn
Bit rate mode : Constant
Bit rate : 448 Kbps
Channel(s) : 6 channels
Channel positions : Front: L C R, Side: L R, LFE
Sampling rate : 48.0 KHz
Bit depth : 16 bits
Compression mode : Lossy
Stream size : 334 MiB (10%)
Title : Руский
Language : Russian

Audio #2
ID : 3
Format : AC-3
Format/Info : Audio Coding 3
Mode extension : CM (complete main)
Muxing mode : Header stripping
Codec ID : A_AC3
Duration : 1h 44mn
Bit rate mode : Constant
Bit rate : 448 Kbps
Channel(s) : 6 channels
Channel positions : Front: L C R, Side: L R, LFE
Sampling rate : 48.0 KHz
Bit depth : 16 bits
Compression mode : Lossy
Stream size : 334 MiB (10%)
Title : Русский (Немахов)
Language : Russian

Audio #3
ID : 4
Format : AC-3
Format/Info : Audio Coding 3
Mode extension : CM (complete main)
Muxing mode : Header stripping
Codec ID : A_AC3
Duration : 1h 44mn
Bit rate mode : Constant
Bit rate : 448 Kbps
Channel(s) : 6 channels
Channel positions : Front: L C R, Side: L R, LFE
Sampling rate : 48.0 KHz
Bit depth : 16 bits
Compression mode : Lossy
Stream size : 334 MiB (10%)
Title : Украинский
Language : Ukrainian

Audio #4
ID : 5
Format : AC-3
Format/Info : Audio Coding 3
Mode extension : CM (complete main)
Muxing mode : Header stripping
Codec ID : A_AC3
Duration : 1h 44mn
Bit rate mode : Constant
Bit rate : 448 Kbps
Channel(s) : 6 channels
Channel positions : Front: L C R, Side: L R, LFE
Sampling rate : 48.0 KHz
Bit depth : 16 bits
Compression mode : Lossy
Stream size : 334 MiB (10%)
Title : Английский
Language : English

Text #1
ID : 6
Format : UTF-8
Codec ID : S_TEXT/UTF8
Codec ID/Info : UTF-8 Plain Text
Title : Русские
Language : Russian

Text #2
ID : 7
Format : UTF-8
Codec ID : S_TEXT/UTF8
Codec ID/Info : UTF-8 Plain Text
Title : Украинские
Language : Ukrainian

Text #3
ID : 8
Format : UTF-8
Codec ID : S_TEXT/UTF8
Codec ID/Info : UTF-8 Plain Text
Title : Русские (voronine)
Language : Russian

Text #4
ID : 9
Format : UTF-8
Codec ID : S_TEXT/UTF8
Codec ID/Info : UTF-8 Plain Text
Title : Английские
Language : English
Скриншоты
загрузка...
Правила, инструкции, FAQ!!!
Торрент  Добавлен [12 фев 2014, 08:18] Скачать торрент
Скачать торрент
[ Размер 16.6 КБ / Просмотров 6 ]

Статус  
 
Размер  3.22 ГБ
Приватный: Нет (DHT включён)
.torrent скачан  0
Как залить торрент? | Как скачать Torrent? | Как смотреть и слушать онлайн?  


     Отправить личное сообщение
   
Страница 1 из 1
Показать сообщения за:  Поле сортировки  
Начать новую тему Ответить на тему

   Похожие торренты   Автор   Ответы   Просмотры   Последнее сообщение 
В этой теме нет новых непрочитанных сообщений. Скачать торрент Соломон Кейн / Solomon Kane (Майкл Дж. Бассетт / Michael J. Bassett) [2009 г., боевик, фэнтези, приключения, HDRip] DVO (TWIX)

в форуме Боевики, Размер: 743.2 МБ, Здоровье: 100%

Anonymous

0
1|0

38
0

11 фев 2014, 09:15

Anonymous Перейти к последнему сообщению

В этой теме нет новых непрочитанных сообщений. Скачать торрент Проверен Соломон Кейн / Solomon Kane (2009) BDRip 1080p

в форуме 720p | 1080p, Размер: 11.66 ГБ, Здоровье: 100%

Anonymous

0
9|5

72
110

27 ноя 2014, 18:37

Anonymous Перейти к последнему сообщению

В этой теме нет новых непрочитанных сообщений. Скачать торрент Типа крутые легавые / Hot Fuzz (Эдгар Райт / Edgar Wright) [2007 г., Франция, Великобритания, боевик, комедия, детектив, BDRip-AVC] Dub + AVO (Немахов) + Original + Subs (Rus, Eng)

в форуме 720p | 1080p, Размер: 2.72 ГБ, Здоровье: 0%

Anonymous

0
0|0

33
0

07 фев 2014, 11:40

Anonymous Перейти к последнему сообщению

В этой теме нет новых непрочитанных сообщений. Скачать торрент Последний легион / The Last Legion (Даг Лефлер / Doug Lefler) [2007, Франция, Великобритания, Италия, Тунис, фэнтези, боевик, приключения, военный, BDRip-AVC] Dub + Original (Eng) + Sub (Rus, Eng)

в форуме 720p | 1080p, Размер: 3.84 ГБ, Здоровье: 100%

Anonymous

0
11|4

39
0

06 фев 2014, 11:43

Anonymous Перейти к последнему сообщению

В этой теме нет новых непрочитанных сообщений. Скачать торрент Вирус / Virus (Джон Бруно / John Bruno) [1999, США, Германия, Франция, Япония, Великобритания, ужасы, фантастика, боевик, триллер, BDRip] Dub + MVO + Original + Subs (Rus. Eng)

в форуме Ужасы, Размер: 2.18 ГБ, Здоровье: 100%

Anonymous

0
3|1

53
0

01 фев 2014, 19:06

Anonymous Перейти к последнему сообщению



Сейчас этот форум просматривают: нет зарегистрированных пользователей и гости: 1


Вы не можете начинать темы
Вы не можете отвечать на сообщения
Вы не можете редактировать свои сообщения
Вы не можете удалять свои сообщения
Вы не можете добавлять вложения

Перейти:  

!ВНИМАНИЕ!
 Ресурс не предоставляет электронные версии произведений, а занимается лишь коллекционированием и каталогизацией ссылок, присылаемых и публикуемых на форуме нашими читателями. Если вы являетесь правообладателем какого-либо представленного материала и не желаете чтобы ссылка на него находилась в нашем каталоге, свяжитесь с нами и мы незамедлительно удалим её. Файлы для обмена на трекере предоставлены пользователями сайта, и администрация не несёт ответственности за их содержание. Просьба не заливать файлы, защищенные авторскими правами, а также файлы нелегального содержания!