На всех торрентах на трекере установлена скидка на скачивание в размере 100 процентов(а).
 Возможность скачивания торрента НЕ зависит от ограничений при низком ратио, низком аплоаде, требуемом ратио или требуемом аплоаде.


Начать новую тему Ответить на тему
Статистика раздачи
Размер: 1.46 ГБ | Добавлен: 12 фев 2014, 08:15 | Скачали: 0
Сидеров: 0  [0 байт/сек]    Личеров: 0  [0 байт/сек]
Пред. тема | След. тема 

Автор
Сообщение

СообщениеДобавлено: 12 фев 2014, 08:15 

Война картелей / Disrupt / Dismantle / Cartel War

Страна: США
Жанр: Боевик, драма, криминал
Год выпуска: 2010
Продолжительность: 01:33:01

Перевод: Профессиональный (двухголосый закадровый) НТВ+
Cубтитры: нет
Режиссер: Джек Лукарелли, Трой Прайс / Jack Lucarelli, Troy Price

В ролях: Джек Лукарелли, Мерседес Брито, Роберто Санчес, Сандра Люссе, Дуайт Хикс, Джин Литгоу, Брайан Смоленский, Аарон Д. Спирс

Описание: Спецподразделение американской полиции, которое называется «Дивизион 123», работает под прикрытием. Его цель - подорвать изнутри
могущественный наркокартель, базирующийся в Мексике и распространивший своё влияние далеко за её пределами.

Сэмпл: http://multi-up.com/620219

Качество видео: HDTVRip
Формат видео: AVI

Видео: 720x400 (1.8:1), 25 fps, XviD MPEG-4 2045 Kbps, 0.28 bit/pixel
Аудио: 44.1 KHz, MP3, 2 ch, 192 kbps
MediaInfo
General
Complete name : D:\Voyna karteley 2010.avi
Format : AVI
Format/Info : Audio Video Interleave
File size : 1.46 GiB
Duration : 1h 33mn
Overall bit rate : 2 246 Kbps
Writing application : VirtualDubMod 1.5.10.3 | www.virtualdub-fr.org || (build 2550/release)
Writing library : VirtualDubMod build 2550/release
Video #0
ID : 0
Format : MPEG-4 Visual
Format profile : AdvancedSimple@L5
Format settings, BVOP : Yes
Format settings, QPel : No
Format settings, GMC : No warppoints
Format settings, Matrix : Default (MPEG)
Codec ID : XVID
Codec ID/Hint : XviD
Duration : 1h 33mn
Bit rate : 2 045 Kbps
Width : 720 pixels
Height : 400 pixels
Display aspect ratio : 16:9
Frame rate : 25.000 fps
Resolution : 24 bits
Colorimetry : 4:2:0
Scan type : Progressive
Bits/(Pixel*Frame) : 0.284
Stream size : 1.33 GiB (91%)
Writing library : XviD 58
Audio #1
ID : 1
Format : MPEG Audio
Format version : Version 1
Format profile : Layer 3
Codec ID : 55
Codec ID/Hint : MP3
Duration : 1h 33mn
Bit rate mode : Constant
Bit rate : 192 Kbps
Channel(s) : 2 channels
Sampling rate : 44.1 KHz
Resolution : 16 bits
Stream size : 128 MiB (9%)
Alignment : Aligned on interleaves
Interleave, duration : 40 ms (1.00 video frame)
Interleave, preload duration : 522 ms
Скриншот c названием фильма
Скриншоты
загрузка...
Правила, инструкции, FAQ!!!
Торрент  Добавлен [12 фев 2014, 08:15] Скачать торрент
Скачать торрент
[ Размер 15.09 КБ / Просмотров 5 ]

Статус  
 
Размер  1.46 ГБ
Приватный: Нет (DHT включён)
.torrent скачан  0
Как залить торрент? | Как скачать Torrent? | Как смотреть и слушать онлайн?  


     Отправить личное сообщение
   
Страница 1 из 1
Показать сообщения за:  Поле сортировки  
Начать новую тему Ответить на тему

   Похожие торренты   Автор   Ответы   Просмотры   Последнее сообщение 
В этой теме нет новых непрочитанных сообщений. Скачать торрент Проверен [iPad] Святые из трущоб (Святые из Бундока) / The Boondock Saints (Трой Даффи) [1999 г., боевик, триллер, драма, комедия, криминал, BDRip]

в форуме Фильмы для iPod, iPhone, iPad, Размер: 2.87 ГБ, Здоровье: 100%

Гость

0
30|11

42
2

18 май 2015, 10:39

Гость Перейти к последнему сообщению

В этой теме нет новых непрочитанных сообщений. Скачать торрент Проверен [iPod] Казино Джек / Casino Jack (Джордж Хикенлупер / George Hickenlooper) [2009, драма, комедия, криминал, биография, HDRip]

в форуме Фильмы для iPod, iPhone, iPad, Размер: 520.26 МБ, Здоровье: 100%

Anonymous

0
2|1

20
0

18 май 2015, 10:46

Anonymous Перейти к последнему сообщению

В этой теме нет новых непрочитанных сообщений. Скачать торрент Проверен Земля картелей / Cartel Land (2015) HDRip | L1

в форуме Документальные, Размер: 2.05 ГБ, Здоровье: 100%

Гость

0
292|257

492
204

19 дек 2015, 09:35

Гость Перейти к последнему сообщению

В этой теме нет новых непрочитанных сообщений. Скачать торрент Проверен [VIDEO] Джек Райан: Теория Хаоса / Jack Ryan: Shadow Recruit (Кеннет Брана / Kenneth Branagh) [2014г, Россия, США, боевик, триллер, драма, HDRip][MP4, 640x] Dub

в форуме Видео для смартфонов и КПК, Размер: 914.91 МБ, Здоровье: 100%

Anonymous

0
41|13

35
0

02 авг 2014, 16:54

Anonymous Перейти к последнему сообщению

В этой теме нет новых непрочитанных сообщений. Скачать торрент Святые из бундока 2: День всех святых / The Boondock Saints II: All Saints Day (Трой Даффи / Troy Duffy) [2009 г., боевик, триллер, комедия, BDRip-AVC] [720p]

в форуме 720p | 1080p, Размер: 2.9 ГБ, Здоровье: 100%

Anonymous

0
34|11

46
0

01 апр 2014, 09:34

Anonymous Перейти к последнему сообщению



Сейчас этот форум просматривают: нет зарегистрированных пользователей и гости: 1


Вы не можете начинать темы
Вы не можете отвечать на сообщения
Вы не можете редактировать свои сообщения
Вы не можете удалять свои сообщения
Вы не можете добавлять вложения

Перейти:  

!ВНИМАНИЕ!
 Ресурс не предоставляет электронные версии произведений, а занимается лишь коллекционированием и каталогизацией ссылок, присылаемых и публикуемых на форуме нашими читателями. Если вы являетесь правообладателем какого-либо представленного материала и не желаете чтобы ссылка на него находилась в нашем каталоге, свяжитесь с нами и мы незамедлительно удалим её. Файлы для обмена на трекере предоставлены пользователями сайта, и администрация не несёт ответственности за их содержание. Просьба не заливать файлы, защищенные авторскими правами, а также файлы нелегального содержания!