На всех торрентах на трекере установлена скидка на скачивание в размере 100 процентов(а).
 Возможность скачивания торрента НЕ зависит от ограничений при низком ратио, низком аплоаде, требуемом ратио или требуемом аплоаде.


Начать новую тему Ответить на тему
Статистика раздачи
Размер: 1.46 ГБ | Добавлен: 11 фев 2014, 09:16 | Скачали: 0
Сидеров: 2  [0 байт/сек]    Личеров: 1  [0 байт/сек]
Пред. тема | След. тема 

Автор
Сообщение

СообщениеДобавлено: 11 фев 2014, 09:16 

Затерянная колония / Исчезнувшая колония / The Lost Colony / Wraiths of Roanoke

Страна: США
Жанр: боевик, фантастика, фентези, ужасы
Год выпуска: 2007
Продолжительность: 1:27:31

Перевод: Профессиональный (многоголосый закадровый)
Cубтитры: нет
Режиссер: Метт Кодд / Matt Codd

В ролях: Эдриан Пол, Фрида Шоу, Ретт Джайлс, Майкл Те, Мэри Маскаро.

Описание: Остров Роаноке,1587 год. Группа солдат с женами и детьми решает основать на этом прекрасном острове колонию, чтобы жить в мире и согласии. Но что-то идет не так. Остров населен злом, которое не потерпит соседей. Начинается битва не только за жизнь, но и за спасение души от исчадий ада.
Главную роль в фильме исполнил Эдриан Пол, знаменитый «Горец»,а Продюссером выступил режиссер «Коммандо» Марк Лестер.



Качество видео: DVDRip(Исх DVD5)
Формат видео: AVI

Видео: 720x400 (1.80:1), 25 fps, XviD build 50 ~1988 kbps avg, 0.28 bit/pixel
Аудио: 48 kHz, AC3 Dolby Digital, 3/2 (L,C,R,l,r) + LFE ch, ~384 kbps
AviInfo
File: Ischeznuvchaya kolonia.chopper887.avi
Filesize: 1491.71 Mb ( 1 564 170 240 bytes )
Play length: 01:27:31.680 (131292 frames)
Subtitles: Not Present
Video: 720x400 (1.80:1), 25 fps, XviD build 50 ~1988 kbps avg, 0.28 bit/pixel
Audio: 48 kHz, AC3 Dolby Digital, 3/2 (L,C,R,l,r) + LFE ch, ~384 kbps
MediaInfo
General
Complete name : D:\Ischeznuvchaya kolonia.chopper887.avi
Format : AVI
Format/Info : Audio Video Interleave
File size : 1.46 GiB
Duration : 1h 27mn
Overall bit rate : 2 383 Kbps
Writing application : VirtualDubMod 1.5.10.3 | http://www.virtualdub-fr.org || (build 2550/release)
Writing library : VirtualDubMod build 2550/release

Video
ID : 0
Format : MPEG-4 Visual
Format profile : Advanced Simple@L5
Format settings, BVOP : Yes
Format settings, QPel : No
Format settings, GMC : No warppoints
Format settings, Matrix : Custom
Codec ID : XVID
Codec ID/Hint : XviD
Duration : 1h 27mn
Bit rate : 1 989 Kbps
Width : 720 pixels
Height : 400 pixels
Display aspect ratio : 16:9
Frame rate : 25.000 fps
Color space : YUV
Chroma subsampling : 4:2:0
Bit depth : 8 bits
Scan type : Progressive
Compression mode : Lossy
Bits/(Pixel*Frame) : 0.276
Stream size : 1.22 GiB (83%)
Writing library : XviD 1.2.1 (UTC 2008-12-04)

Audio
ID : 1
Format : AC-3
Format/Info : Audio Coding 3
Mode extension : CM (complete main)
Codec ID : 2000
Duration : 1h 27mn
Bit rate mode : Constant
Bit rate : 384 Kbps
Channel(s) : 6 channels
Channel positions : Front: L C R, Side: L R, LFE
Sampling rate : 48.0 KHz
Bit depth : 16 bits
Compression mode : Lossy
Stream size : 240 MiB (16%)
Alignment : Split accross interleaves
Interleave, duration : 40 ms (1.00 video frame)
Interleave, preload duration : 500 ms
Скриншоты
загрузка...
Правила, инструкции, FAQ!!!
Торрент  Добавлен [11 фев 2014, 09:16] Скачать торрент
Скачать торрент
[ Размер 15.06 КБ / Просмотров 10 ]

Статус  
 
Размер  1.46 ГБ
Приватный: Нет (DHT включён)
.torrent скачан  0
Как залить торрент? | Как скачать Torrent? | Как смотреть и слушать онлайн?  


     Отправить личное сообщение
   
Страница 1 из 1
Показать сообщения за:  Поле сортировки  
Начать новую тему Ответить на тему

   Похожие торренты   Автор   Ответы   Просмотры   Последнее сообщение 
В этой теме нет новых непрочитанных сообщений. Скачать торрент Эпоха / Epoch (Мэтт Кодд / Matt Codd) [2001, Фантастика, триллер, DVDRip]

в форуме Фантастика, Фэнтези, Размер: 1.45 ГБ, Здоровье: 100%

Anonymous

0
3|1

47
1

24 апр 2014, 14:08

Anonymous Перейти к последнему сообщению

В этой теме нет новых непрочитанных сообщений. Скачать торрент Проверен Колония / Colony [S01] (2016) WEB-DLRip | LostFilm

в форуме Зарубежные сериалы, Размер: 4.89 ГБ, Здоровье: 100%

Гость

0
228|146

95
227

19 мар 2016, 21:47

Гость Перейти к последнему сообщению

В этой теме нет новых непрочитанных сообщений. Скачать торрент Колония / The Colony (2013) BDRip 1080p | Лицензия

в форуме 720p | 1080p, Размер: 7.15 ГБ, Здоровье: 0%

Anonymous

0
0|0

17
0

24 фев 2014, 10:35

Anonymous Перейти к последнему сообщению

В этой теме нет новых непрочитанных сообщений. Скачать торрент Колония / The Colony (2013) BDRip 720p | Лицензия

в форуме 720p | 1080p, Размер: 5 ГБ, Здоровье: 0%

Anonymous

0
0|0

22
0

24 фев 2014, 10:29

Anonymous Перейти к последнему сообщению

В этой теме нет новых непрочитанных сообщений. Скачать торрент Проверен Колония / Colony [S01] (2016) WEBRip 1080p | LostFilm

в форуме Зарубежные сериалы, Размер: 18.52 ГБ, Здоровье: 14%

Гость

0
19|131

129
25

20 мар 2016, 00:54

Гость Перейти к последнему сообщению



Сейчас этот форум просматривают: нет зарегистрированных пользователей и гости: 3


Вы не можете начинать темы
Вы не можете отвечать на сообщения
Вы не можете редактировать свои сообщения
Вы не можете удалять свои сообщения
Вы не можете добавлять вложения

Перейти:  

!ВНИМАНИЕ!
 Ресурс не предоставляет электронные версии произведений, а занимается лишь коллекционированием и каталогизацией ссылок, присылаемых и публикуемых на форуме нашими читателями. Если вы являетесь правообладателем какого-либо представленного материала и не желаете чтобы ссылка на него находилась в нашем каталоге, свяжитесь с нами и мы незамедлительно удалим её. Файлы для обмена на трекере предоставлены пользователями сайта, и администрация не несёт ответственности за их содержание. Просьба не заливать файлы, защищенные авторскими правами, а также файлы нелегального содержания!