На всех торрентах на трекере установлена скидка на скачивание в размере 100 процентов(а).
 Возможность скачивания торрента НЕ зависит от ограничений при низком ратио, низком аплоаде, требуемом ратио или требуемом аплоаде.


Начать новую тему Ответить на тему
Статистика раздачи
Размер: 1.35 ГБ | Добавлен: 05 фев 2014, 14:10 | Скачали: 0
Сидеров: 0  [0 байт/сек]    Личеров: 0  [0 байт/сек]
Пред. тема | След. тема 

Автор
Сообщение

СообщениеДобавлено: 05 фев 2014, 14:10 

Название: Пьяный рассвет
Оригинальное название: Tequila Sunrise
Год выхода: 1988
Жанр: Боевик, Драма, Криминал
Режиссер: Роберт Таун

В ролях: Мел Гибсон, Курт Расселл, Мишель Пфайффер, Рауль Хулиа, Дж.Т. Уолш, Арлисс Ховард, Энн Магнусон, Эрай Гросс, Бадд Боэттичер

Вкратце:
Билл торгует наркотиками уже 15 лет и хочет "завязать". Его друг детства Ник - полицейский, и он полон желания поймать Билла с поличным. Оба они неравнодушны к владелице итальянского ресторана Джоанне. Любовная линия органично вписывается в добротную схему приключенческого боевика, где чувствуется рука Тауна, автора сценариев знаменитых лент "Китайский квартал" и "Последний наряд". Фильм номинировался на Оскар за лучшую операторскую работу.



Страна: США
Студия: Warner Brothers
Продолжительность: 01:55:17
Перевод: Профессиональный (полное дублирование) Мост-Видео


Кодек: XviD
Качество: HDRip с |BDRip 1080 p|
Видео: 720 x 400, 23,976 fps, 1479 kbps
Звук: AC3, 192 kbps, 2 ch, 48,0 khz
Общее
Полное имя : tequila.sunrise.1988.HDRip.avi
Формат : AVI
Формат/Информация : Audio Video Interleave
Размер файла : 1,35 Гбайт
Продолжительность : 1 ч. 55 м.
Общий поток : 1681 Кбит/сек
Программа кодирования : VirtualDubMod 1.5.10.2 (build 2542/release)
Библиотека кодирования : VirtualDubMod build 2542/release

Видео
Идентификатор : 0
Формат : MPEG-4 Visual
Профиль формата : Advanced Simple@L5
Параметр BVOP формата : 1
Параметр QPel формата : Нет
Параметр GMC формата : Без точки перехода
Параметр матрицы формата : Выборочная
Идентификатор кодека : XVID
Идентификатор кодека/Подсказка : XviD
Продолжительность : 1 ч. 55 м.
Битрейт : 1479 Кбит/сек
Ширина : 720 пикс.
Высота : 400 пикс.
Соотношение сторон : 16:9
Частота кадров : 23,976 кадр/сек
Цветовое пространство : YUV
Подвыборка цветности : 4:2:0
Битовая глубина : 8 бит
Тип развёртки : Прогрессивная
Метод сжатия : С потерями
Бит/(Пиксели*Кадры) : 0.214
Размер потока : 1,19 Гбайт (88%)
Библиотека кодирования : XviD 73

Аудио
Идентификатор : 1
Формат : AC-3
Формат/Информация : Audio Coding 3
Расширение режима : CM (complete main)
Идентификатор кодека : 2000
Продолжительность : 1 ч. 55 м.
Вид битрейта : Постоянный
Битрейт : 192 Кбит/сек
Канал(ы) : 2 канала(ов)
Расположение каналов : Front: L R
Частота : 48,0 КГц
Битовая глубина : 16 бит
Метод сжатия : С потерями
Размер потока : 158 Мбайт (11%)
Выравнивание : Разделение по промежуткам
Продолжительность промежутка : 42 мс. (1,00 видеокадр)
Время предзагрузки промежутка : 500 ms


Релиз от: Leon-masl
загрузка...
Правила, инструкции, FAQ!!!
Торрент  Добавлен [05 фев 2014, 14:10] Скачать торрент
Скачать торрент
[ Размер 14.17 КБ / Просмотров 7 ]

Статус  
 
Размер  1.35 ГБ
Приватный: Нет (DHT включён)
.torrent скачан  0
Как залить торрент? | Как скачать Torrent? | Как смотреть и слушать онлайн?  


     Отправить личное сообщение
   
Страница 1 из 1
Показать сообщения за:  Поле сортировки  
Начать новую тему Ответить на тему

   Похожие торренты   Автор   Ответы   Просмотры   Последнее сообщение 
В этой теме нет новых непрочитанных сообщений. Скачать торрент Пьяный рассвет / Tequila Sunrise (1988) BDRip 720p | D, P, P2, A

в форуме 720p | 1080p, Размер: 6.51 ГБ, Здоровье: 0%

Anonymous

0
0|0

30
0

05 фев 2014, 14:07

Anonymous Перейти к последнему сообщению

В этой теме нет новых непрочитанных сообщений. Скачать торрент Проверен [MP4 656x272] Сумерки. Сага. Рассвет: Часть 1 / The Twilight Saga: Breaking Dawn - Part 1 (2011) HDRip

в форуме Видео для смартфонов и КПК, Размер: 872.64 МБ, Здоровье: ???%

Anonymous

0
0|1

42
0

25 окт 2014, 23:26

Anonymous Перейти к последнему сообщению

В этой теме нет новых непрочитанных сообщений. Скачать торрент Проверен (Modern Electric Blues/Soul-Blues) Albert King - Blues At Sunrise - 1988, FLAC (tracks+.cue), lossless

в форуме Blues (Texas, Chicago, Modern and Others), Размер: 256.09 МБ, Здоровье: 100%

Anonymous

0
3|2

6
0

15 окт 2016, 23:31

Anonymous Перейти к последнему сообщению

В этой теме нет новых непрочитанных сообщений. Скачать торрент Проверен (Progressive Rock, Art Rock) Sunrise Sunset Project - Sunrise Sunset - 2009 [MALS 335], FLAC (tracks+.cue) + Running Like A Train (single) - 2010, FLAC, lossless

в форуме Progressive & Art-Rock, Размер: 213.06 МБ, Здоровье: 100%

Anonymous

0
2|1

4
0

29 авг 2016, 23:13

Anonymous Перейти к последнему сообщению

В этой теме нет новых непрочитанных сообщений. Скачать торрент Проверен (Hard Rock) Dust - Tequila Shiver - 2015, MP3, 320 kbps

в форуме Classic Rock & Hard Rock, Размер: 108.65 МБ, Здоровье: 0%

Anonymous

0
0|0

0
0

13 ноя 2016, 16:24

Anonymous Перейти к последнему сообщению



Сейчас этот форум просматривают: нет зарегистрированных пользователей и гости: 1


Вы не можете начинать темы
Вы не можете отвечать на сообщения
Вы не можете редактировать свои сообщения
Вы не можете удалять свои сообщения
Вы не можете добавлять вложения

Перейти:  

!ВНИМАНИЕ!
 Ресурс не предоставляет электронные версии произведений, а занимается лишь коллекционированием и каталогизацией ссылок, присылаемых и публикуемых на форуме нашими читателями. Если вы являетесь правообладателем какого-либо представленного материала и не желаете чтобы ссылка на него находилась в нашем каталоге, свяжитесь с нами и мы незамедлительно удалим её. Файлы для обмена на трекере предоставлены пользователями сайта, и администрация не несёт ответственности за их содержание. Просьба не заливать файлы, защищенные авторскими правами, а также файлы нелегального содержания!