На всех торрентах на трекере установлена скидка на скачивание в размере 100 процентов(а).
 Возможность скачивания торрента НЕ зависит от ограничений при низком ратио, низком аплоаде, требуемом ратио или требуемом аплоаде.


Начать новую тему Ответить на тему
Статистика раздачи
Размер: 2.18 ГБ | Добавлен: 25 янв 2014, 09:35 | Скачали: 0
Сидеров: 0  [0 байт/сек]    Личеров: 0  [0 байт/сек]
Пред. тема | След. тема 

Автор
Сообщение

СообщениеДобавлено: 25 янв 2014, 09:35 

Совокупность лжи / Body of Lies (2008) BDRip

Год выпуска: 2008
Жанр: Боевик, Триллер, Драма

Описание фильма:
ЦРУ охотится на руководителя серии террористических атак. Роджер Феррис является агентом национальной разведки, он перемещается по всему свету, пытаясь предотвратить любые нежелательные события. Око в небе, спутник, наблюдает за ним. На другом конце этой связи ветеран ЦРУ Эд Хоффман, который отслеживает события издалека. Чем ближе подбирается Феррис к своей цели, тем явственнее понимает, что доверие - это одновременно и опасная штука, и то единственное, что позволит ему остаться в живых...

Режиссер: Ридли Скотт
Актеры: Леонардо ДиКаприо, Расселл Кроу, Марк Стронг, Голшифте Фарахани, Оскар Айзек, Али Сулимэн, Алон Абутбул, Винс Колосимо, Саймон МакБерни, Мехди Неббу, Майкл Гэстон, Каис Насеф, Джамил Хури, Лубна Азабаль, Али Халил, Джианнина Фасио, Чейз Эдмундс, Морган А. Вик, Майкл Стулбарг, Дэвид Ганли, Биджан Данешманд, Омар Бердуни, Ричард Де Майо, Клара Хури, Сами Самир, Али Алви, Ведант Гокхале, Аль Тванмо, Элли К. Ванг, Аллен Лидки, Уильям Мередит, Ховард В. Овершоун, Кэти К. Брэйди, Квентин Мэр, Мэтт Гулбрансон, Аннабелль Уоллис

Продолжительность: 02:08:18
Качество видео: BDRip (Исходник Blu-Ray (1080p) от HDClub)
Перевод: Дублированный + Вставки ПМ (тексты, титры и разговоры на других языках)
Cубтитры: нет
Оригинальная аудиодорожка: нет
Релиз от: ivandubskoj



Дата мировой премьеры: 05.10.2008
Дата российской премьеры: 20.11.2008
Дата выхода DVD релиза: 24.02.2009
Дата выхода Blu-Ray релиза: 24.02.2009

Видеокодек: XviD
Битрейт видео: 1975 Кбит/с
Размер кадра: 720x304
Аудиокодек: AC3 5.1
Битрейт аудио: 448 Кбит/с
Сэмпл: Ссылка
General
Complete name : Sovokupnost.Lzhi.2008.RUS.XviD.BDRip.avi
Format : AVI
Format/Info : Audio Video Interleave
Format profile : OpenDML
File size : 2.18 GiB
Duration : 2h 8mn
Overall bit rate : 2 433 Kbps
Writing application : VirtualDubMod 1.5.10.2 (build 2540/release)
Writing library : VirtualDubMod build 2540/release

Video
ID : 0
Format : MPEG-4 Visual
Format profile : Advanced Simple@L5
Format settings, BVOP : 1
Format settings, QPel : No
Format settings, GMC : No warppoints
Format settings, Matrix : Default (MPEG)
Codec ID : XVID
Codec ID/Hint : XviD
Duration : 2h 8mn
Bit rate : 1 975 Kbps
Width : 720 pixels
Height : 304 pixels
Display aspect ratio : 2.35:1
Frame rate : 23.976 fps
Color space : YUV
Chroma subsampling : 4:2:0
Bit depth : 8 bits
Scan type : Progressive
Compression mode : Lossy
Bits/(Pixel*Frame) : 0.376
Stream size : 1.77 GiB (81%)
Writing library : XviD 1.2.1 (UTC 2008-12-04)

Audio
ID : 1
Format : AC-3
Format/Info : Audio Coding 3
Mode extension : CM (complete main)
Codec ID : 2000
Duration : 2h 8mn
Bit rate mode : Constant
Bit rate : 448 Kbps
Channel(s) : 6 channels
Channel positions : Front: L C R, Side: L R, LFE
Sampling rate : 48.0 KHz
Bit depth : 16 bits
Compression mode : Lossy
Stream size : 411 MiB (18%)
Alignment : Split accross interleaves
Interleave, duration : 64 ms (1.53 video frames)
Interleave, preload duration : 500 ms
В данном релизе АБСОЛЮТНО ПОЛНЫЙ РУССКИЙ ПЕРЕВОД!!! ПЕРЕВЕДЕНО И ОЗВУЧЕНО ВСЁ: Начальные и финальные титры, название фильма, надписи, те места где говорят на и других языках.
Скриншоты:
загрузка...
Правила, инструкции, FAQ!!!
Торрент  Добавлен [25 янв 2014, 09:35] Скачать торрент
Скачать торрент
[ Размер 11.66 КБ / Просмотров 17 ]

Статус  
 
Размер  2.18 ГБ
Приватный: Нет (DHT включён)
.torrent скачан  0
Как залить торрент? | Как скачать Torrent? | Как смотреть и слушать онлайн?  


     Отправить личное сообщение
   
Страница 1 из 1
Показать сообщения за:  Поле сортировки  
Начать новую тему Ответить на тему

   Похожие торренты   Автор   Ответы   Просмотры   Последнее сообщение 
В этой теме нет новых непрочитанных сообщений. Скачать торрент Совокупность лжи / Body of Lies (2008) BDRip 1080р

в форуме 720p | 1080p, Размер: 4.37 ГБ, Здоровье: 0%

Anonymous

0
0|0

28
0

12 дек 2013, 10:42

Anonymous Перейти к последнему сообщению

В этой теме нет новых непрочитанных сообщений. Скачать торрент Совокупность лжи / Body of Lies (Ридли Скотт / Ridley Scott) [2008, США, боевик, триллер, драма, BDRip] Dub + Original + Sub (Rus, Eng)

в форуме Боевики, Размер: 2.58 ГБ, Здоровье: 100%

Anonymous

0
56|19

61
0

16 апр 2014, 07:50

Anonymous Перейти к последнему сообщению

В этой теме нет новых непрочитанных сообщений. Скачать торрент Совокупность лжи / Body of Lies (Ридли Скотт / Ridley Scott) [2008, Боевик, триллер, драма, BDRip] AVO (Гаврилов) + Original (Eng) + Subs (Rus, Eng)

в форуме Боевики, Размер: 1.47 ГБ, Здоровье: 100%

Anonymous

0
25|8

71
0

06 фев 2014, 11:45

Anonymous Перейти к последнему сообщению

В этой теме нет новых непрочитанных сообщений. Скачать торрент Проверен Coach Christopher Sommer - Building the Gymnastic Body (2008) [2008, PDF, ENG]

в форуме Физкультура, фитнес, бодибилдинг, Размер: 12.05 МБ, Здоровье: 0%

Anonymous

0
0|0

0
0

04 окт 2016, 23:58

Anonymous Перейти к последнему сообщению

В этой теме нет новых непрочитанных сообщений. Скачать торрент Проверен Похитители тел / Body Snatchers (1993) BDRip | D, P, P2

в форуме Ужасы, Размер: 1.45 ГБ, Здоровье: 100%

Гость

0
35|2

90
25

16 ноя 2016, 00:03

Гость Перейти к последнему сообщению



Сейчас этот форум просматривают: нет зарегистрированных пользователей и гости: 1


Вы не можете начинать темы
Вы не можете отвечать на сообщения
Вы не можете редактировать свои сообщения
Вы не можете удалять свои сообщения
Вы не можете добавлять вложения

Перейти:  

!ВНИМАНИЕ!
 Ресурс не предоставляет электронные версии произведений, а занимается лишь коллекционированием и каталогизацией ссылок, присылаемых и публикуемых на форуме нашими читателями. Если вы являетесь правообладателем какого-либо представленного материала и не желаете чтобы ссылка на него находилась в нашем каталоге, свяжитесь с нами и мы незамедлительно удалим её. Файлы для обмена на трекере предоставлены пользователями сайта, и администрация не несёт ответственности за их содержание. Просьба не заливать файлы, защищенные авторскими правами, а также файлы нелегального содержания!