На всех торрентах на трекере установлена скидка на скачивание в размере 100 процентов(а).
 Возможность скачивания торрента НЕ зависит от ограничений при низком ратио, низком аплоаде, требуемом ратио или требуемом аплоаде.


Начать новую тему Ответить на тему
Статистика раздачи
Размер: 1.46 ГБ | Добавлен: 01 янв 2014, 23:41 | Скачали: 0
Сидеров: 0  [0 байт/сек]    Личеров: 0  [0 байт/сек]
Пред. тема | След. тема 

Автор
Сообщение

СообщениеДобавлено: 01 янв 2014, 23:41 

Страна: США, Перу
Жанр: боевик, триллер, драма
Год выпуска: 1993
Продолжительность: 01:34:35




Перевод: Авторский (одноголосый закадровый) Дмитрий Пучков aka Goblin
Cубтитры: нет




Режиссер: Луис Ллоса / Luis Llosa

В ролях: Том Беренджер, Билли Зейн, Дж.Т. Уолш, Аден Янг, Кен Рэдли, Рейнальдо Аренас, Гэри Суонсон, Хэнк Гаррет, Фредерик Мираглиотта, Ванесса Стил




Описание: Два снайпера. Том Бекет и Ричард Миллер, получают смертельно опасное задание: в джунглях Центральной Америки найти базу колумбийских наркодельцов, проникнуть внутрь и ликвидировать главаря. Возможна только одна попытка, один выстрел.









Качество видео: DVDRip
Формат видео: AVI
Видео: 688x512 (1.34:1), 25 fps, XviD build 65 ~1745 kbps avg, 0.20 bit/pixel
Аудио: 48 kHz, AC3 Dolby Digital, 3/2 (L,C,R,l,r) + LFE ch, ~448 kbps
MediaInfo
General
Complete name : D:\Релизы\Sniper.1993.RUS.DVDRip.XviD.AC3.avi
Format : AVI
Format/Info : Audio Video Interleave
File size : 1.46 GiB
Duration : 1h 34mn
Overall bit rate : 2 204 Kbps
Writing application : VirtualDubMod 1.5.10.2 (build 2540/release)
Writing library : VirtualDubMod build 2540/release

Video
ID : 0
Format : MPEG-4 Visual
Format profile : Advanced Simple@L5
Format settings, BVOP : 1
Format settings, QPel : No
Format settings, GMC : No warppoints
Format settings, Matrix : Custom
Codec ID : XVID
Codec ID/Hint : XviD
Duration : 1h 34mn
Bit rate : 1 746 Kbps
Width : 688 pixels
Height : 512 pixels
Display aspect ratio : 4:3
Frame rate : 25.000 fps
Color space : YUV
Chroma subsampling : 4:2:0
Bit depth : 8 bits
Scan type : Progressive
Compression mode : Lossy
Bits/(Pixel*Frame) : 0.198
Stream size : 1.15 GiB (79%)
Writing library : XviD 65

Audio
ID : 1
Format : AC-3
Format/Info : Audio Coding 3
Mode extension : CM (complete main)
Format settings, Endianness : Big
Codec ID : 2000
Duration : 1h 34mn
Bit rate mode : Constant
Bit rate : 448 Kbps
Channel(s) : 6 channels
Channel positions : Front: L C R, Side: L R, LFE
Sampling rate : 48.0 KHz
Bit depth : 16 bits
Compression mode : Lossy
Stream size : 303 MiB (20%)
Alignment : Split accross interleaves
Interleave, duration : 40 ms (1.00 video frame)
Interleave, preload duration : 500 ms
Скриншоты
загрузка...
Правила, инструкции, FAQ!!!
Торрент  Добавлен [01 янв 2014, 23:41] Скачать торрент
Скачать торрент
[ Размер 15.06 КБ / Просмотров 8 ]

Статус  
 
Размер  1.46 ГБ
Приватный: Нет (DHT включён)
.torrent скачан  0
Как залить торрент? | Как скачать Torrent? | Как смотреть и слушать онлайн?  


     Отправить личное сообщение
   
Страница 1 из 1
Показать сообщения за:  Поле сортировки  
Начать новую тему Ответить на тему

   Похожие торренты   Автор   Ответы   Просмотры   Последнее сообщение 
В этой теме нет новых непрочитанных сообщений. Скачать торрент Глаза ангела / Angel Eyes (Луис Мандоки / Luis Mandoki) [2001, США, Триллер, мелодрама, DVDRip] MVO (ГТРК Россия)

в форуме Триллеры, Размер: 1.37 ГБ, Здоровье: 0%

Anonymous

0
0|0

64
0

22 апр 2014, 11:40

Anonymous Перейти к последнему сообщению

В этой теме нет новых непрочитанных сообщений. Скачать торрент Хаос / Chaos [2005 г., Боевик / Детектив / Драма / Триллер, DVDRip]

в форуме Боевики, Размер: 1.37 ГБ, Здоровье: 100%

Anonymous

0
5|1

44
0

10 фев 2014, 13:05

Anonymous Перейти к последнему сообщению

В этой теме нет новых непрочитанных сообщений. Скачать торрент Проверен [iPod] Неуправляемый / Unstoppable (Тони Скотт) [2010 г., боевик, триллер, драма, DVDRip]

в форуме Фильмы для iPod, iPhone, iPad, Размер: 435.07 МБ, Здоровье: 100%

Anonymous

0
1|0

20
0

18 май 2015, 10:47

Anonymous Перейти к последнему сообщению

В этой теме нет новых непрочитанных сообщений. Скачать торрент Проверен [iPhone] Королевство / The Kingdom (Питер Берг) [2007 г., Боевик, триллер, драма, DVDRip]

в форуме Фильмы для iPod, iPhone, iPad, Размер: 875.91 МБ, Здоровье: 100%

Anonymous

0
1|0

41
0

14 май 2015, 00:23

Anonymous Перейти к последнему сообщению

В этой теме нет новых непрочитанных сообщений. Скачать торрент Мюнхен: Возмездие / Munich (Стивен Спилберг) [2005 г., Драма, Триллер, Боевик, DVDRip]

в форуме Драмы, Мелодрамы, Размер: 699.96 МБ, Здоровье: 100%

Anonymous

0
20|4

37
12

03 фев 2014, 12:31

Anonymous Перейти к последнему сообщению



Сейчас этот форум просматривают: нет зарегистрированных пользователей и гости: 1


Вы не можете начинать темы
Вы не можете отвечать на сообщения
Вы не можете редактировать свои сообщения
Вы не можете удалять свои сообщения
Вы не можете добавлять вложения

Перейти:  

!ВНИМАНИЕ!
 Ресурс не предоставляет электронные версии произведений, а занимается лишь коллекционированием и каталогизацией ссылок, присылаемых и публикуемых на форуме нашими читателями. Если вы являетесь правообладателем какого-либо представленного материала и не желаете чтобы ссылка на него находилась в нашем каталоге, свяжитесь с нами и мы незамедлительно удалим её. Файлы для обмена на трекере предоставлены пользователями сайта, и администрация не несёт ответственности за их содержание. Просьба не заливать файлы, защищенные авторскими правами, а также файлы нелегального содержания!