На всех торрентах на трекере установлена скидка на скачивание в размере 100 процентов(а).
 Возможность скачивания торрента НЕ зависит от ограничений при низком ратио, низком аплоаде, требуемом ратио или требуемом аплоаде.


Начать новую тему Ответить на тему
Статистика раздачи
Размер: 2.58 ГБ | Добавлен: 30 дек 2013, 12:38 | Скачали: 0
Сидеров: 0  [0 байт/сек]    Личеров: 0  [0 байт/сек]
Пред. тема | След. тема 

Автор
Сообщение

СообщениеДобавлено: 30 дек 2013, 12:38 

В осаде 2: Темная территория / Захват 2: Темная территория / Under Siege 2: Dark Territory (1995) BDRip

«Five million tons of hijacked metal. One billion dollars of satellite weaponry. Two American cities targeted for nuclear destruction. Only one hero stands in the way»
Год выпуска: 1995
Жанр: Боевик
Производство: США / Warner Bros.
Описание фильма:
Группа террористов-профессионалов, вместе с безумным изобретателем, уволенным из Пентагона, захватила поезд для того, чтобы развернуть на нем передвижной пункт управления засекреченным военным спутником США, на котором установлено лучевое оружие огромной разрушительной силы, и грозят взрывом на Восточном побережье США. Случайно оказавшийся среди пассажиров морской пехотинец Кейси Рейбек изменил их планы.
Режиссер: Джеф Мерфи
Актеры: Стивен Сигал, Эрик Богосян, Кэтрин Хайгл, Эверетт МакГилл, Моррис Честнат, Ник Манкузо

Релиз:
Продолжительность: 01:39:38
Качество видео: BDRip (источник: / Blu-ray Remux /1080p)
Перевод: Многоголосый закадровый, Авторский (одноголосый закадровый)
Язык субтитров: Английские
Вид субтитров: (внешние srt*)


Видеокодек: Xvid
Битрейт видео: 2024 kbps
Размер кадра: 704x400
Аудио#1: 48 kHz, AC3 Dolby Digital, 3/2 (L,C,R,l,r) + LFE ch, ~448.00 kbps avg /Mvo/
Аудио#2: 48 kHz, AC3 Dolby Digital, 2/0 (L,R), ~192.00 kbps avg /Gavrilov Pozdnii/
Аудио#3: 48 kHz, AC3 Dolby Digital, 3/2 (L,C,R,l,r) + LFE ch, ~448.00 kbps avg /Eng/
Аудио#4: 48 kHz, AC3 Dolby Digital, 2/0 (L,R), ~192.00 kbps avg (отдельно) /Gavrilov Rannii/
Аудио#5: 48 kHz, AC3 Dolby Digital, 2/0 (L,R), ~192.00 kbps avg (отдельно) /Jivov/
Аудио#6: 48 kHz, AC3 Dolby Digital, 2/0 (L,R), ~192.00 kbps avg (отдельно) /Gorchakov/

General
Complete name : Zahvat.2.Territoriya.T'my'.1995.TRIPLE.BDRip.XviD.AC3.-HQCLUB.avi
Format : AVI
Format/Info : Audio Video Interleave
Format profile : OpenDML
File size : 2.18 GiB
Duration : 1h 39mn
Overall bit rate : 3 136 Kbps
Movie name : Zahvat.2.Territoriya.T'my'.1995.TRIPLE.BDRip.XviD.AC3.-HQCLUB
Director : kingsize87
Writing application : VirtualDubMod 1.5.10.2 (build 2542/release)
Comment : 17.02.2010

Video
ID : 0
Format : MPEG-4 Visual
Format profile : Advanced Simple@L5
Format settings, BVOP : Yes
Format settings, QPel : No
Format settings, GMC : No warppoints
Format settings, Matrix : Custom
Codec ID : XVID
Codec ID/Hint : XviD
Duration : 1h 39mn
Bit rate : 2 024 Kbps
Width : 704 pixels
Height : 400 pixels
Display aspect ratio : 16:9
Frame rate : 23.976 fps
Color space : YUV
Chroma subsampling : 4:2:0
Bit depth : 8 bits
Scan type : Progressive
Bits/(Pixel*Frame) : 0.300
Stream size : 1.41 GiB (65%)
Writing library : XviD 1.2.1 (UTC 2008-12-04)

Audio #1
ID : 1
Format : AC-3
Format/Info : Audio Coding 3
Mode extension : CM (complete main)
Codec ID : 2000
Duration : 1h 39mn
Bit rate mode : Constant
Bit rate : 448 Kbps
Channel(s) : 6 channels
Channel positions : Front: L C R, Side: L R, LFE
Sampling rate : 48.0 KHz
Bit depth : 16 bits
Stream size : 319 MiB (14%)
Alignment : Split accross interleaves
Interleave, duration : 42 ms (1.00 video frame)
Interleave, preload duration : 500 ms

Audio #2
ID : 2
Format : AC-3
Format/Info : Audio Coding 3
Mode extension : CM (complete main)
Codec ID : 2000
Duration : 1h 39mn
Bit rate mode : Constant
Bit rate : 192 Kbps
Channel(s) : 2 channels
Channel positions : Front: L R
Sampling rate : 48.0 KHz
Bit depth : 16 bits
Stream size : 137 MiB (6%)
Alignment : Split accross interleaves
Interleave, duration : 42 ms (1.00 video frame)
Interleave, preload duration : 500 ms

Audio #3
ID : 3
Format : AC-3
Format/Info : Audio Coding 3
Mode extension : CM (complete main)
Codec ID : 2000
Duration : 1h 39mn
Bit rate mode : Constant
Bit rate : 448 Kbps
Channel(s) : 6 channels
Channel positions : Front: L C R, Side: L R, LFE
Sampling rate : 48.0 KHz
Bit depth : 16 bits
Stream size : 319 MiB (14%)
Alignment : Split accross interleaves
Interleave, duration : 42 ms (1.00 video frame)
Interleave, preload duration : 500 ms

Audio#4
Format : AC-3
Format/Info : Audio Coding 3
Mode extension : CM (complete main)
Duration : 1h 39mn
Bit rate mode : Constant
Bit rate : 192 Kbps
Channel(s) : 2 channels
Channel positions : Front: L R
Sampling rate : 48.0 KHz
Bit depth : 16 bits
Stream size : 137 MiB (100%)

Audio#5
Format : AC-3
Format/Info : Audio Coding 3
Mode extension : CM (complete main)
Duration : 1h 39mn
Bit rate mode : Constant
Bit rate : 192 Kbps
Channel(s) : 2 channels
Channel positions : Front: L R
Sampling rate : 48.0 KHz
Bit depth : 16 bits
Stream size : 137 MiB (100%)

Audio#6
Format : AC-3
Format/Info : Audio Coding 3
Mode extension : CM (complete main)
Duration : 1h 39mn
Bit rate mode : Constant
Bit rate : 192 Kbps
Channel(s) : 2 channels
Channel positions : Front: L R
Sampling rate : 48.0 KHz
Bit depth : 16 bits
Stream size : 137 MiB (100%)

Скриншоты:



загрузка...
Правила, инструкции, FAQ!!!
Торрент  Добавлен [30 дек 2013, 12:38] Скачать торрент
Скачать торрент
[ Размер 14.26 КБ / Просмотров 12 ]

Статус  
 
Размер  2.58 ГБ
Приватный: Нет (DHT включён)
.torrent скачан  0
Как залить торрент? | Как скачать Torrent? | Как смотреть и слушать онлайн?  


     Отправить личное сообщение
   
Страница 1 из 1
Показать сообщения за:  Поле сортировки  
Начать новую тему Ответить на тему

   Похожие торренты   Автор   Ответы   Просмотры   Последнее сообщение 
В этой теме нет новых непрочитанных сообщений. Скачать торрент Проверен В осаде / Захват / Under Siege (1992) / В осаде 2: Темная территория / Under Siege 2: Dark Territory (1995) BDRemux [1080p] [Дилогия / Dilogy]

в форуме BD-Remux, Размер: 33.95 ГБ, Здоровье: ???%

Anonymous

0
0|3

331
2

09 ноя 2014, 00:11

Anonymous Перейти к последнему сообщению

В этой теме нет новых непрочитанных сообщений. Скачать торрент Проверен В осаде 2: Темная территория / Under Siege 2: Dark Territory (1995) BDRip [576p] iPad

в форуме Фильмы для iPod, iPhone, iPad, Размер: 2.28 ГБ, Здоровье: 100%

Anonymous

0
1|1

74
0

13 сен 2015, 01:08

Anonymous Перейти к последнему сообщению

В этой теме нет новых непрочитанных сообщений. Скачать торрент В осаде / Захват / Under Siege (1992) BDRip

в форуме Боевики, Размер: 2.82 ГБ, Здоровье: 0%

Anonymous

0
0|0

59
0

30 дек 2013, 12:46

Anonymous Перейти к последнему сообщению

В этой теме нет новых непрочитанных сообщений. Скачать торрент Проверен [MP4 960x540] Территория тьмы 3D / Dark Country 3D (2009) BDRip

в форуме Видео для смартфонов и КПК, Размер: 989.6 МБ, Здоровье: ???%

Anonymous

0
0|1

37
0

25 окт 2014, 23:19

Anonymous Перейти к последнему сообщению

В этой теме нет новых непрочитанных сообщений. Скачать торрент Проверен Пинк Флойд: Тёмная Сторона Луны / Pink Floyd: The Making Of The Dark Side Of The Moon (2003) BDRip 1080p

в форуме Концерты (HD-Video), Размер: 3.41 ГБ, Здоровье: 100%

Anonymous

0
115|13

183
37

22 авг 2014, 22:15

Anonymous Перейти к последнему сообщению



Сейчас этот форум просматривают: нет зарегистрированных пользователей и гости: 1


Вы не можете начинать темы
Вы не можете отвечать на сообщения
Вы не можете редактировать свои сообщения
Вы не можете удалять свои сообщения
Вы не можете добавлять вложения

Перейти:  

!ВНИМАНИЕ!
 Ресурс не предоставляет электронные версии произведений, а занимается лишь коллекционированием и каталогизацией ссылок, присылаемых и публикуемых на форуме нашими читателями. Если вы являетесь правообладателем какого-либо представленного материала и не желаете чтобы ссылка на него находилась в нашем каталоге, свяжитесь с нами и мы незамедлительно удалим её. Файлы для обмена на трекере предоставлены пользователями сайта, и администрация не несёт ответственности за их содержание. Просьба не заливать файлы, защищенные авторскими правами, а также файлы нелегального содержания!