На всех торрентах на трекере установлена скидка на скачивание в размере 100 процентов(а).
 Возможность скачивания торрента НЕ зависит от ограничений при низком ратио, низком аплоаде, требуемом ратио или требуемом аплоаде.


Начать новую тему Ответить на тему
Статистика раздачи
Размер: 1.29 ГБ | Добавлен: 30 авг 2015, 22:11 | Скачали: 197
Сидеров: 3954  [0 байт/сек]    Личеров: 93  [0 байт/сек]
Пред. тема | След. тема 

Автор
Сообщение

СообщениеДобавлено: 30 авг 2015, 22:11 

Алексей Пахомов | Автомобильные кондиционеры: диагностика, ремонт, заправка (2013) WEB-DLRip

Автор (режиссер): Алексей Пахомов
Жанр: Обучающие видеуроки
Продолжительность: 02:38:39
Качество видео: WEB-DLRip
Видеокодек: MPEG-4 Part 10 / AVC / H.264
Битрейт видео: ~ 692-1378 kb/s 25 FPS
Размер кадра: 1280 x720
Аудиокодек: AAC
Битрейт аудио: 128 kb/s, 2 Ch, 44100 Hz

Описание:
Вы хотите увеличить выручку Вашего автосервиса? Если да, то этот видеокурс для Вас.
Что такое автомобильный кондиционер? А как он работает?
Почему холодильник на моей кухне работает много лет и не требует вмешательства, а автомобильный кондиционер нужно обслуживать каждые 2-3 года?
Обслуживать автокондиционеры - это сложно или нет?
А сколько нужно для этого денег? За какое время они вернутся?
Вопросов много.
Часть ответов Вы прочитаете ниже, а часть - услышите в новом видеокурсе!
Почему именно автокондиционеры? Потому что:
-они давно перестали быть предметом роскоши и присутствуют в большом количестве даже на дешевых автомобилях;
-они требуют регулярного обслуживания;
-для работы с кондиционерами не требуется отдельное рабочее место;
-возможна работа на выезде;
-минимум вложений в рекламу: штендера у дороги будет вполне достаточно;
-минимум вложений в оборудование: необходимая сумма составляет всего 50 000 рублей и вернется к Вам за две-три недели.
После просмотра курса Вы научитесь:
-находить неисправности в системе кондиционирования воздуха;
-обнаруживать места утечек двумя различными способами;
-заправлять систему кондиционирования "вручную" и с помощью автоматической станции;
-обслуживать и настраивать автоматическую станцию.
General
Count : 284
Count of stream of this kind : 1
Kind of stream : General
Kind of stream : General
Stream identifier : 0
Inform : MPEG-4 (Base Media): 55.9 MiB, 6mn 21s
Count of video streams : 1
Count of audio streams : 1
Video_Format_List : AVC
Video_Format_WithHint_List : AVC
Codecs Video : AVC
Video_Language_List : Russian
Audio_Format_List : AAC
Audio_Format_WithHint_List : AAC
Audio codecs : AAC LC
Audio_Language_List : Russian
Complete name : Condey/00_Начало.mp4
Folder name : Condey
File name : 00_Начало
File extension : mp4
Format : MPEG-4
Format : MPEG-4
Format/Extensions usually used : mp4 m4v m4a m4b m4p 3gpp 3gp 3gpp2 3g2 k3g jpm jpx mqv ismv isma f4v
Commercial name : MPEG-4
Format profile : Base Media
Internet media type : video/mp4
Codec ID : isom
Codec ID/Url : http://www.apple.com/quicktime/download/standalone.html
Codec : MPEG-4
Codec : MPEG-4
Codec/Extensions usually used : mp4 m4v m4a m4b m4p 3gpp 3gp 3gpp2 3g2 k3g jpm jpx mqv ismv isma f4v
File size : 58645408
File size : 55.9 MiB
File size : 56 MiB
File size : 56 MiB
File size : 55.9 MiB
File size : 55.93 MiB
Duration : 381320
Duration : 6mn 21s
Duration : 6mn 21s 320ms
Duration : 6mn 21s
Duration : 00:06:21.320
Overall bit rate mode : VBR
Overall bit rate mode : Variable
Overall bit rate : 1230366
Overall bit rate : 1 230 Kbps
Stream size : 174370
Stream size : 170 KiB (0%)
Stream size : 170 KiB
Stream size : 170 KiB
Stream size : 170 KiB
Stream size : 170.3 KiB
Stream size : 170 KiB (0%)
Proportion of this stream : 0.00297
HeaderSize : 174296
DataSize : 58471046
FooterSize : 66
IsStreamable : Yes
Encoded date : UTC 2013-11-06 20:35:03
Tagged date : UTC 2013-11-06 20:35:03
File last modification date : UTC 2014-11-14 13:19:05
File last modification date (local) : 2014-11-14 16:19:05

Video
Count : 277
Count of stream of this kind : 1
Kind of stream : Video
Kind of stream : Video
Stream identifier : 0
StreamOrder : 0
Inform : Russian, 1 099 Kbps, 1280*720 (16:9), at 25.000 fps, AVC (High@L3.1) (CABAC / 4 Ref Frames)
ID : 1
ID : 1
Format : AVC
Format/Info : Advanced Video Codec
Format/Url : http://developers.videolan.org/x264.html
Commercial name : AVC
Format profile :
Format settings : CABAC / 4 Ref Frames
Format settings, CABAC : Yes
Format settings, CABAC : Yes
Format settings, ReFrames : 4
Format settings, ReFrames : 4 frames
Internet media type : video/H264
Codec ID : avc1
Codec ID/Info : Advanced Video Coding
Codec ID/Url : http://www.apple.com/quicktime/download/standalone.html
Codec : AVC
Codec : AVC
Codec/Family : AVC
Codec/Info : Advanced Video Codec
Codec/Url : http://developers.videolan.org/x264.html
Codec/CC : avc1
Codec profile :
Codec settings : CABAC / 4 Ref Frames
Codec settings, CABAC : Yes
Codec_Settings_RefFrames : 4
Duration : 381320
Duration : 6mn 21s
Duration : 6mn 21s 320ms
Duration : 6mn 21s
Duration : 00:06:21.320
Bit rate : 1098787
Bit rate : 1 099 Kbps
Maximum bit rate : 3308456
Maximum bit rate : 3 308 Kbps
Width : 1280
Width : 1 280 pixels
Height : 720
Height : 720 pixels
Pixel aspect ratio : 1.000
Display aspect ratio : 1.778
Display aspect ratio : 16:9
Rotation : 0.000
Frame rate mode : CFR
Frame rate mode : Constant
FrameRate_Mode_Original : VFR
Frame rate : 25.000
Frame rate : 25.000 fps
Frame count : 9533
Resolution : 8
Resolution : 8 bits
Colorimetry : 4:2:0
Color space : YUV
Chroma subsampling : 4:2:0
Bit depth : 8
Bit depth : 8 bits
Scan type : Progressive
Scan type : Progressive
Interlacement : PPF
Interlacement : Progressive
Bits/(Pixel*Frame) : 0.048
Stream size : 52373664
Stream size : 49.9 MiB (89%)
Stream size : 50 MiB
Stream size : 50 MiB
Stream size : 49.9 MiB
Stream size : 49.95 MiB
Stream size : 49.9 MiB (89%)
Proportion of this stream : 0.89306
Writing library : x264 - core 120 r2146 bcd41db
Writing library : x264 core 120 r2146 bcd41db
Writing library/Name : x264
Writing library/Version : core 120 r2146 bcd41db
Encoding settings : cabac=1 / ref=3 / deblock=1:0:0 / analyse=0x3:0x113 / me=hex / subme=7 / psy=1 / psy_rd=1.00:0.00 / mixed_ref=1 / me_range=16 / chroma_me=1 / trellis=1 / 8x8dct=1 / cqm=0 / deadzone=21,11 / fast_pskip=1 / chroma_qp_offset=-2 / threads=6 / sliced_threads=0 / nr=0 / decimate=1 / interlaced=0 / bluray_compat=0 / constrained_intra=0 / bframes=3 / b_pyramid=2 / b_adapt=1 / b_bias=0 / direct=1 / weightb=1 / open_gop=0 / weightp=2 / keyint=250 / keyint_min=25 / scenecut=40 / intra_refresh=0 / rc_lookahead=40 / rc=crf / mbtree=1 / crf=23.0 / qcomp=0.60 / qpmin=0 / qpmax=69 / qpstep=4 / ip_ratio=1.40 / aq=1:1.00
Language : ru
Language : Russian
Language : Russian
Language : ru
Language : rus
Language : ru
Tagged date : UTC 2013-11-06 20:35:03

Audio
Count : 222
Count of stream of this kind : 1
Kind of stream : Audio
Kind of stream : Audio
Stream identifier : 0
StreamOrder : 1
Inform : Russian, 128 Kbps, 44.1 KHz, 2 channels, AAC (LC)
ID : 2
ID : 2
Format : AAC
Format/Info : Advanced Audio Codec
Commercial name : AAC
Format profile : LC
Codec ID : 40
Codec : AAC LC
Codec : AAC LC
Codec/Family : AAC
Codec/CC : 40
Duration : 381085
Duration : 6mn 21s
Duration : 6mn 21s 85ms
Duration : 6mn 21s
Duration : 00:06:21.085
Bit rate mode : VBR
Bit rate mode : Variable
Bit rate : 127992
Bit rate : 128 Kbps
Maximum bit rate : 136880
Maximum bit rate : 137 Kbps
Channel(s) : 2
Channel(s) : 2 channels
Channel positions : Front: L R
Channel positions : 2/0/0
ChannelLayout : L R
Sampling rate : 44100
Sampling rate : 44.1 KHz
Samples count : 16805848
Frame count : 16412
Compression mode : Lossy
Compression mode : Lossy
Stream size : 6097374
Stream size : 5.81 MiB (10%)
Stream size : 6 MiB
Stream size : 5.8 MiB
Stream size : 5.81 MiB
Stream size : 5.815 MiB
Stream size : 5.81 MiB (10%)
Proportion of this stream : 0.10397
Language : ru
Language : Russian
Language : Russian
Language : ru
Language : rus
Language : ru
Encoded date : UTC 2013-11-06 20:35:03
Tagged date : UTC 2013-11-06 20:35:03
Отдельная огромная благодарность участнику retterret за предоставленный материал!
Скриншоты:


Время раздачи: Пн-Сб с 18:00 до 21:00, Вс с 09:00 до 21:00
загрузка...
Правила, инструкции, FAQ!!!
Торрент  Добавлен [30 авг 2015, 22:11] Скачать торрент
Скачать торрент
[ Размер 14.34 КБ / Просмотров 584 ]

Статус
Проверен 
 
Размер  1.29 ГБ
Приватный: Нет (DHT включён)
.torrent скачан  197
Как залить торрент? | Как скачать Torrent? | Как смотреть и слушать онлайн?  


     Отправить личное сообщение
   
Страница 1 из 1
Показать сообщения за:  Поле сортировки  
Начать новую тему Ответить на тему

   Похожие торренты   Автор   Ответы   Просмотры   Последнее сообщение 
В этой теме нет новых непрочитанных сообщений. Закрыто правообладателем Алексей Пахомов | Диагностика бензиновых двигателей. Старт, Практик, Эксперт (2013) [DVDRip] Данный торрент является блокированным, причина: Закрыто правообладателем

в форуме Программы по диагностике и ремонту, Размер: 27 ГБ, Здоровье: 100%

Anonymous

8
916|173

5156
89

29 ноя 2016, 20:56

Nelhem Перейти к последнему сообщению

В этой теме нет новых непрочитанных сообщений. Скачать торрент Проверен Алексей Пахомов | Ремонт электронных блоков управления современных автомобилей (2013) WEB-DL

в форуме Интерактивные обучающие и развивающие материалы, Размер: 4.25 ГБ, Здоровье: 100%

Anonymous

0
4136|123

1288
237

30 авг 2015, 22:22

Anonymous Перейти к последнему сообщению

В этой теме нет новых непрочитанных сообщений. Закрыто правообладателем Алексей Пахомов | Autoscope от А до Я (2015) PCRec [H.264/720p] Данный торрент является блокированным, причина: Закрыто правообладателем

в форуме Интерактивные обучающие и развивающие материалы, Размер: 4.15 ГБ, Здоровье: 100%

Anonymous

5
708|61

1675
72

29 ноя 2016, 20:54

Nelhem Перейти к последнему сообщению

В этой теме нет новых непрочитанных сообщений. Закрыто правообладателем Алексей Пахомов | Автоэлектрик с нуля (2015) CamRip [H.264/720p] Данный торрент является блокированным, причина: Закрыто правообладателем

в форуме Интерактивные обучающие и развивающие материалы, Размер: 7.6 ГБ, Здоровье: 100%

Anonymous

4
432|64

2444
44

01 дек 2016, 15:41

Козявкин_007 Перейти к последнему сообщению

В этой теме нет новых непрочитанных сообщений. Скачать торрент Проверен Алексей Пахомов | Прибыльный автосервис (2015) PCRec [H.264/720p]

в форуме Интерактивные обучающие и развивающие материалы, Размер: 1.99 ГБ, Здоровье: 100%

Anonymous

0
2606|104

979
169

28 дек 2015, 22:57

Anonymous Перейти к последнему сообщению



Сейчас этот форум просматривают: нет зарегистрированных пользователей и гости: 1


Вы не можете начинать темы
Вы не можете отвечать на сообщения
Вы не можете редактировать свои сообщения
Вы не можете удалять свои сообщения
Вы не можете добавлять вложения

Перейти:  

!ВНИМАНИЕ!
 Ресурс не предоставляет электронные версии произведений, а занимается лишь коллекционированием и каталогизацией ссылок, присылаемых и публикуемых на форуме нашими читателями. Если вы являетесь правообладателем какого-либо представленного материала и не желаете чтобы ссылка на него находилась в нашем каталоге, свяжитесь с нами и мы незамедлительно удалим её. Файлы для обмена на трекере предоставлены пользователями сайта, и администрация не несёт ответственности за их содержание. Просьба не заливать файлы, защищенные авторскими правами, а также файлы нелегального содержания!