На всех торрентах на трекере установлена скидка на скачивание в размере 100 процентов(а).
 Возможность скачивания торрента НЕ зависит от ограничений при низком ратио, низком аплоаде, требуемом ратио или требуемом аплоаде.


Начать новую тему Ответить на тему
Статистика раздачи
Размер: 3.02 ГБ | Добавлен: 30 авг 2015, 22:07 | Скачали: 156
Сидеров: 3246  [357 байт/сек]    Личеров: 103  [0 байт/сек]
Пред. тема | След. тема 

Автор
Сообщение

СообщениеДобавлено: 30 авг 2015, 22:07 

Андрей Татауров, Алексей Пахомов | Устройство легкового автомобиля + Автокондиционеры (2013) [CamRip, PCRec]

Автор (режиссер): Андрей Татауров, Алексей Пахомов
Жанр: Авто, автокондиционеры
Продолжительность: 05:00:00
Качество видео: CamRip, PCRec
Видеокодек: AVC
Битрейт видео: ~1099 kbps
Размер кадра: 1280x720
Аудиокодек: AAC 2.0
Битрейт аудио: 128 kbps (CBR), 2 Ch, 44100 Hz

Описание:
Данное видео руководства непременно поможет почти всем начинающим автовладельцам ориентироваться в особенностях личного авто, Вы узнаете об устройствах и принципах работы всех систем автомобиля, методах правильной эксплуатации, факторах возникновения поломок, и методах их устранения.

Этот курс призван помочь начинающим водителям вникнуть в суть процессов, происходящих внутри их железного коня и сделать из них грамотных пользователей, которые знают, как устроены все узлы и агрегаты автомобиля, и как правильно эксплуатировать, чтобы уменьшить свои затраты на топливо и ремонт и повысить безопасность вождения.
Устройство легкового автомобиля:

● Общее устройство автомобиля
● Рабочий цикл четырехтактного бензинового и дизельного двигателя
● Основные механизмы и системы двигателя внутреннего сгорания, их назначение
● Кривошипно-шатунный механизм
● Газораспределительный механизм
● Система охлаждения двигателя
● Система смазки двигателя,способы смазывания деталей двигателя
● Топливо и топливо - воздушная смесь
● Общее устройство системы питания
● Карбюратор
● Инжектор
● Система питания дизеля
● Система питания двигателя от газобаллонной установки
● Система зажигания
● Трансмиссия автомобиля, сцепление
● Коробка передач
● Автоматическая коробка передач
● Вариатор
● Карданная и главная передачи
● Электрооборудование автомобиля
● Стартер
● Ходовая часть автомобиля
● Колеса и шины
● Рулевое управление автомобиля
● Тормозная система автомобиля
● Автомобильные масла и смазки
● Элементы теории автомобиля

Автокондиционеры: диагностика, ремонт, заправка

Увеличьте прибыль своего автосервиса, внедрив услугу по диагностике и ремонту Автокондиционеров. Диагностика автокондиционеров не преподается в учебных заведениях. Все специалисты, имеющие опыт в этой области, работают на автосервисах и не спешат делиться с конкурентами своими знаниями.

В видеокурсе даны подробные рекомендации по покупке диагностического оборудования:
1. Что купить
2. Где купить
3. Как применить
Общее
Формат : MPEG-4
Профиль формата : Base Media
Идентификатор кодека : isom
Размер файла : 55,9 Мбайт
Режим общего битрейта : Переменный
Общий поток : 1230 Кбит/сек

Видео
Идентификатор : 1
Формат : AVC
Формат/Информация : Advanced Video Codec
Профиль формата :
Параметр CABAC формата : Да
Параметр ReFrames формата : 4 кадра
Идентификатор кодека : avc1
Идентификатор кодека/Информация : Advanced Video Coding
Битрейт : 1099 Кбит/сек
Максимальный битрейт : 3308 Кбит/сек
Ширина : 1280 пикселей
Высота : 720 пикселей
Соотношение сторон : 16:9
Режим частоты кадров : Постоянный
Частота кадров : 25,000 кадров/сек
Цветовое пространство : YUV
Субдискретизация насыщенности : 4:2:0
Битовая глубина : 8 бит
Тип развёртки : Прогрессивная
Бит/(Пиксели*Кадры) : 0.048
Размер потока : 49,9 Мбайт (89%)

Аудио
Идентификатор : 2
Формат : AAC
Формат/Информация : Advanced Audio Codec
Профиль формата : LC
Идентификатор кодека : 40
Вид битрейта : Переменный
Битрейт : 128 Кбит/сек
Максимальный битрейт : 137 Кбит/сек
Каналы : 2 канала
Расположение каналов : Front: L R
Частота : 44,1 КГц
Метод сжатия : С потерями
Размер потока : 5,81 Мбайт (10%)

Скриншоты:



Время раздачи: Круглосуточно
загрузка...
Правила, инструкции, FAQ!!!
Торрент  Добавлен [30 авг 2015, 22:07] Скачать торрент
Скачать торрент
[ Размер 19.06 КБ / Просмотров 507 ]

Статус
Проверен 
 
Размер  3.02 ГБ
Приватный: Нет (DHT включён)
.torrent скачан  156
Как залить торрент? | Как скачать Torrent? | Как смотреть и слушать онлайн?  


     Отправить личное сообщение
   
Страница 1 из 1
Показать сообщения за:  Поле сортировки  
Начать новую тему Ответить на тему

   Похожие торренты   Автор   Ответы   Просмотры   Последнее сообщение 
В этой теме нет новых непрочитанных сообщений. Закрыто правообладателем Алексей Пахомов | Автоэлектрик с нуля (2015) CamRip [H.264/720p] Данный торрент является блокированным, причина: Закрыто правообладателем

в форуме Интерактивные обучающие и развивающие материалы, Размер: 7.6 ГБ, Здоровье: 100%

Anonymous

4
432|64

2455
44

01 дек 2016, 15:41

Козявкин_007 Перейти к последнему сообщению

В этой теме нет новых непрочитанных сообщений. Закрыто правообладателем Алексей Пахомов | Autoscope от А до Я (2015) PCRec [H.264/720p] Данный торрент является блокированным, причина: Закрыто правообладателем

в форуме Интерактивные обучающие и развивающие материалы, Размер: 4.15 ГБ, Здоровье: 100%

Anonymous

5
708|61

1677
72

29 ноя 2016, 20:54

Nelhem Перейти к последнему сообщению

В этой теме нет новых непрочитанных сообщений. Скачать торрент Проверен Алексей Пахомов | Прибыльный автосервис (2015) PCRec [H.264/720p]

в форуме Интерактивные обучающие и развивающие материалы, Размер: 1.99 ГБ, Здоровье: 100%

Anonymous

0
2616|104

986
169

28 дек 2015, 22:57

Anonymous Перейти к последнему сообщению

В этой теме нет новых непрочитанных сообщений. Скачать торрент Проверен Алексей Пахомов | Семинар "Газообмен в бензиновом двигателе" (2014) PCRec [H.264/720p]

в форуме Интерактивные обучающие и развивающие материалы, Размер: 1.45 ГБ, Здоровье: 100%

Anonymous

0
2609|57

776
153

28 дек 2015, 22:56

Anonymous Перейти к последнему сообщению

В этой теме нет новых непрочитанных сообщений. Скачать торрент Проверен Евгений Колчин - Устройство бани. Температурный режимы. Банная печь. Утепление бани. Устройство парной. [2010 г., Обучающее видео, CamRip]

в форуме Строительство, ремонт и дизайн, Размер: 1.23 ГБ, Здоровье: 100%

Anonymous

0
295|12

110
6

24 янв 2016, 09:54

Anonymous Перейти к последнему сообщению



Сейчас этот форум просматривают: нет зарегистрированных пользователей и гости: 1


Вы не можете начинать темы
Вы не можете отвечать на сообщения
Вы не можете редактировать свои сообщения
Вы не можете удалять свои сообщения
Вы не можете добавлять вложения

Перейти:  

!ВНИМАНИЕ!
 Ресурс не предоставляет электронные версии произведений, а занимается лишь коллекционированием и каталогизацией ссылок, присылаемых и публикуемых на форуме нашими читателями. Если вы являетесь правообладателем какого-либо представленного материала и не желаете чтобы ссылка на него находилась в нашем каталоге, свяжитесь с нами и мы незамедлительно удалим её. Файлы для обмена на трекере предоставлены пользователями сайта, и администрация не несёт ответственности за их содержание. Просьба не заливать файлы, защищенные авторскими правами, а также файлы нелегального содержания!