На всех торрентах на трекере установлена скидка на скачивание в размере 100 процентов(а).
 Возможность скачивания торрента НЕ зависит от ограничений при низком ратио, низком аплоаде, требуемом ратио или требуемом аплоаде.


Начать новую тему Ответить на тему
Статистика раздачи
Размер: 1.34 ГБ | Добавлен: 24 сен 2013, 09:54 | Скачали: 1
Сидеров: 0  [0 байт/сек]    Личеров: 0  [0 байт/сек]
Пред. тема | След. тема 

Автор
Сообщение

СообщениеДобавлено: 24 сен 2013, 09:54 

Информация о фильме
Название: Элизиум: Рай не на Земле
Оригинальное название: Elysium
Год выхода: 2013
Жанр: фантастика, боевик, триллер, драма
Режиссер: Нил Бломкамп / Neill Blomkamp
В ролях:
Мэтт Дэймон, Джоди Фостер, Брэндон Оре, Алиса Брага, Соня Брага, Хосе Пабло Кантильо, Шарлто Коупли, Клод Дюамель, Уильям Фихтнер, Эдриэн Холмс, Диего Луна, Майкл Мэндо, Вагнер Мора, Карли Поуп, Майкл Шэнкс, Талиса Сото, Фаран Тахир и др.

О фильме:
В 2154 году существует два класса людей: очень богатые, живущие на чистой, созданной руками человека, космической станции под названием Элизиум и остальные, живущие на перенаселённой разрушенной Земле. Безжалостный правительственный чиновник Министр Роудс не остановится ни перед чем для применения анти-иммиграционных законов и сохранения роскошного образа жизни граждан Элизиума. Когда неудачника Макса загоняют в угол, он соглашается взять на себя сложную миссию, которая в случае успеха не только спасёт ему жизнь, но и может привести к равенству этих поляризованных миров.
Страна: США
Продолжительность: 01:40:46
Перевод: Профессиональный (дублированный) [Звук с TS]



Доп. информация: фильм содержит неотключаемые китайские субтитры.

Файл
Качество видео: DVDScreener
Формат видео: AVI
Видео: 720x296 (2.43:1), 29.970 fps, XviD MPEG-4 ~1508 kbps avg, 0.24 bit/pixel
Аудио: 48 kHz, AC3 Dolby Digital, 2/0 (L,R) ch, ~192 kbps [RUS]
Аудио 2: 48 kHz, AC3 Dolby Digital, 2/0 (L,R) ch, ~192 kbps [ENG]
Субтитры: Китайские [hardsub (неотключаемые)]

Семпл


Код:
Общее
Полное имя                               : Elizium.2013.DVDSCR.avi
Формат                                   : AVI
Формат/Информация                        : Audio Video Interleave
Размер файла                             : 1,34 Гбайт
Продолжительность                        : 1 ч. 40 м.
Общий поток                              : 1911 Кбит/сек
Название фильма                          : Elizium.2013.DVDSCR
Жанр                                     : Fantasy
Программа кодирования                    : VirtualDubMod 1.5.10.2 (build 2540/release)
Формат оригинала/Имя                     : Movie
Примечание                               : DVDSCR

Видео
Идентификатор                            : 0
Формат                                   : MPEG-4 Visual
Профиль формата                          : Advanced Simple@L5
Параметр BVOP формата                    : 2
Параметр QPel формата                    : Нет
Параметр GMC формата                     : Без точки перехода
Параметр матрицы формата                 : Default (H.263)
Режим смешивания                         : Сжатый битовый поток
Идентификатор кодека                     : XVID
Идентификатор кодека/Подсказка           : XviD
Продолжительность                        : 1 ч. 40 м.
Битрейт                                  : 1509 Кбит/сек
Ширина                                   : 720 пикселей
Высота                                   : 296 пикселей
Соотношение сторон                       : 2,40:1
Частота кадров                           : 29,970 кадров/сек
Цветовое пространство                    : YUV
Субдискретизация насыщенности            : 4:2:0
Битовая глубина                          : 8 бит
Тип развёртки                            : Прогрессивная
Метод сжатия                             : С потерями
Бит/(Пиксели*Кадры)                      : 0.236
Размер потока                            : 1,06 Гбайт (79%)
Библиотека кодирования                   : XviD 64

Аудио #1
Идентификатор                            : 1
Формат                                   : AC-3
Формат/Информация                        : Audio Coding 3
Расширение режима                        : CM (complete main)
Параметр Endianness формата              : Big
Идентификатор кодека                     : 2000
Продолжительность                        : 1 ч. 40 м.
Вид битрейта                             : Постоянный
Битрейт                                  : 192 Кбит/сек
Каналы                                   : 2 канала
Расположение каналов                     : Front: L R
Частота                                  : 48,0 КГц
Битовая глубина                          : 16 бит
Метод сжатия                             : С потерями
Размер потока                            : 138 Мбайт (10%)
Выравнивание                             : Разделение по промежуткам
Продолжительность промежутка             : 33  мс. (1,00 видеокадр)
Время предзагрузки промежутка            : 500  мс.

Аудио #2
Идентификатор                            : 2
Формат                                   : AC-3
Формат/Информация                        : Audio Coding 3
Расширение режима                        : CM (complete main)
Параметр Endianness формата              : Big
Идентификатор кодека                     : 2000
Продолжительность                        : 1 ч. 40 м.
Вид битрейта                             : Постоянный
Битрейт                                  : 192 Кбит/сек
Каналы                                   : 2 канала
Расположение каналов                     : Front: L R
Частота                                  : 48,0 КГц
Битовая глубина                          : 16 бит
Метод сжатия                             : С потерями
Размер потока                            : 138 Мбайт (10%)
Выравнивание                             : Разделение по промежуткам
Продолжительность промежутка             : 33  мс. (1,00 видеокадр)
Время предзагрузки промежутка            : 500  мс.


Релиз от:
загрузка...
Правила, инструкции, FAQ!!!
Торрент  Добавлен [24 сен 2013, 09:54] Мусор Скачать торрент
Скачать торрент
[ Размер 14.06 КБ / Просмотров 4 ]

Статус  
 
Размер  1.34 ГБ
Приватный: Нет (DHT включён)
.torrent скачан  1
Как залить торрент? | Как скачать Torrent? | Как смотреть и слушать онлайн?  


     Отправить личное сообщение
   

СообщениеДобавлено: 24 сен 2013, 10:26 

Не в сети
Администратор
Администратор
Аватара пользователя

Стаж: 4 года 1 месяц 18 дней
Раздал: 260.29 ГБ
Скачал: 158.38 ГБ
Ратио: 1.643
Торренты: 0
Скоро будет в нормальном качестве.

_________________
Не скачивается раздача? напишите об этом в теме!


Профиль     Отправить личное сообщение
   
Страница 1 из 1
Показать сообщения за:  Поле сортировки  
Начать новую тему Ответить на тему

   Похожие торренты   Автор   Ответы   Просмотры   Последнее сообщение 
В этой теме нет новых непрочитанных сообщений. Скачать торрент [VIDEO] Элизиум: Рай не на Земле / Elysium (Нил Бломкамп / Neill Blomkamp) [2013, Фантастика, боевик, триллер, драма, WEB-DLRip] [MP4, 960x] Dub iTunes, Original

в форуме Видео для смартфонов и КПК, Размер: 1.15 ГБ, Здоровье: 100%

Anonymous

0
1|0

87
0

30 янв 2014, 06:46

Anonymous Перейти к последнему сообщению

В этой теме нет новых непрочитанных сообщений. Скачать торрент [VIDEO] Элизиум: Рай не на Земле / Elysium (Нил Бломкамп / Neill Blomkamp) [2013г, США, фантастика, боевик, триллер, драма, WEBRip][MP4, 480x]

в форуме Видео для смартфонов и КПК, Размер: 503.9 МБ, Здоровье: 0%

Anonymous

0
0|0

49
0

30 янв 2014, 06:47

Anonymous Перейти к последнему сообщению

В этой теме нет новых непрочитанных сообщений. Скачать торрент Проверен (Crossover Progressive) [CD] Elysium Theory - Event Horizon (2013), FLAC (image+.cue+artwork), lossless

в форуме Progressive & Art-Rock, Размер: 433.85 МБ, Здоровье: 0%

Anonymous

0
0|0

3
1

30 авг 2016, 17:24

Anonymous Перейти к последнему сообщению

В этой теме нет новых непрочитанных сообщений. Скачать торрент Проверен Робибанд. Инструкция по монтажу окон ПВХ с использованием пароизоляционных лент. [2004 г., учебное видео, DVDScreener]

в форуме Строительство, ремонт и дизайн, Размер: 2.6 ГБ, Здоровье: 100%

Anonymous

0
5|1

59
0

17 янв 2016, 10:40

Anonymous Перейти к последнему сообщению

В этой теме нет новых непрочитанных сообщений. Скачать торрент Проверен Лем Станислав - Мир на Земле [Сергей Дмитриев (ЛИ), 2013 г., 128 kbps, MP3]

в форуме Зарубежная фантастика, фэнтези, мистика, ужасы, Размер: 387.07 МБ, Здоровье: 0%

Anonymous

0
0|0

3
0

11 сен 2016, 11:49

Anonymous Перейти к последнему сообщению



Сейчас этот форум просматривают: нет зарегистрированных пользователей и гости: 1


Вы не можете начинать темы
Вы не можете отвечать на сообщения
Вы не можете редактировать свои сообщения
Вы не можете удалять свои сообщения
Вы не можете добавлять вложения

Перейти:  

!ВНИМАНИЕ!
 Ресурс не предоставляет электронные версии произведений, а занимается лишь коллекционированием и каталогизацией ссылок, присылаемых и публикуемых на форуме нашими читателями. Если вы являетесь правообладателем какого-либо представленного материала и не желаете чтобы ссылка на него находилась в нашем каталоге, свяжитесь с нами и мы незамедлительно удалим её. Файлы для обмена на трекере предоставлены пользователями сайта, и администрация не несёт ответственности за их содержание. Просьба не заливать файлы, защищенные авторскими правами, а также файлы нелегального содержания!