На всех торрентах на трекере установлена скидка на скачивание в размере 100 процентов(а).
 Возможность скачивания торрента НЕ зависит от ограничений при низком ратио, низком аплоаде, требуемом ратио или требуемом аплоаде.


Начать новую тему Ответить на тему
Статистика раздачи
Размер: 5.76 ГБ | Добавлен: 31 дек 2013, 10:42 | Скачали: 25
Сидеров: 9  [0 байт/сек]    Личеров: 0  [0 байт/сек]
Пред. тема | След. тема 

Автор
Сообщение

СообщениеДобавлено: 31 дек 2013, 10:42 

Берсерк: Золотой век. Фильм II. Битва за Долдрей

Berserk Ogon Jidai-hen II: Doldrey Koryaku




Год выпуска: 2012
Страна: Япония
Жанр: аниме, мультфильм, фэнтези, драма, приключения
Продолжительность: 01:33:06
Перевод: Профессиональный (дублированный)
Субтитры: Russian (UTF-8)

Режиссер: Тосиюки Кубоока, Майкл Синтерниклаас
Сценарий: Кэнтаро Миура, Итиро Окоути
Продюсер: -
Композитор: Сиро Сагису

В ролях: Крис Джай Алекс / Chris Jai Alex (дополнительные голоса), Кевин Коллинз / Kevin Collins (Griffith, озвучка), Марк Дирайсон / Marc Diraison (Guts, озвучка), Даг Эрхольц / Doug Erholtz (Corkus, озвучка), Такахиро Фудзивара / Takahiro Fujiwara (Pippin, озвучка), Хироаки Иванага / Hiroaki Iwanaga (Guts, озвучка), Юки Кадзи / Yuki Kaji (Judeau, озвучка), Кэрри Керанен / Carrie Keranen (Casca, озвучка)

Описание: Восхождение главаря наемников Гриффитса к вершинам власти продолжается. Он вызвался совершить невозможное: захватить бывший оплот королевства Мидлэнд. Пять тысяч всадников — против тридцатитысячного гарнизона… Но если это безумие, то разумен ли Гатс, во всем поддерживающий боевого товарища?

Премьера (мир): 23 июня 2012, ...
Премьера (РФ): 23 августа 2012, «Reanimedia»
Релиз на DVD: 15 ноября 2013, «Reanimedia»,
Релиз на Blu-Ray: 15 ноября 2013, «Reanimedia»,



Качество: BDRip 1080р
Формат: MKV
Видео кодек: AVC
Аудио кодеk: DTS + AC3
Видео: 1920x816 (2.35:1), 23.976 fps, AVC, 6 450 Kbps

Аудио #1: AC3, 448 Kbps, 48.0 KHz, 6 ch дубляж BD RUS (Реанимедиа)
Аудио #2: DTS, 1 510 Kbps, 48.0 KHz, 6 ch дубляж BD RUS (Реанимедиа)
Аудио #3: AC3, 448 Kbps, 48.0 KHz, 6 ch Japanese





Лог:
- x264 [info]: frame I:1052 Avg QP:10.26 size:181109
- x264 [info]: frame P:43028 Avg QP:12.80 size: 61859
- x264 [info]: frame B:89857 Avg QP:13.84 size: 18363
- x264 [info]: consecutive B-frames: 8.0% 9.0% 12.9% 52.0% 9.3% 4.5% 1.9% 1.2% 1.4%

General
Complete name : Berserk.II.2012.BDRip.1080p.mkv
Format : Matroska
File size : 5.76 GiB
Duration : 1h 33mn
Overall bit rate : 8 856 Kbps
Encoded date : UTC 2013-12-25 21:34:11
Writing application : mkvmerge v6.5.0 ('Isn't she lovely') built on Oct 20 2013 12:50:05
Writing library : libebml v1.3.0 + libmatroska v1.4.1

Video
ID : 1
Format : AVC
Format/Info : Advanced Video Codec
Format profile : High@L4.1
Format settings, CABAC : Yes
Format settings, ReFrames : 5 frames
Muxing mode : Container profile=Unknown@4.1
Codec ID : V_MPEG4/ISO/AVC
Duration : 1h 33mn
Bit rate : 6 450 Kbps
Width : 1 920 pixels
Height : 816 pixels
Display aspect ratio : 2.35:1
Frame rate : 23.976 fps
Color space : YUV
Chroma subsampling : 4:2:0
Bit depth : 8 bits
Scan type : Progressive
Bits/(Pixel*Frame) : 0.172
Stream size : 4.08 GiB (71%)
Writing library : x264 core 140 r2377 1ca7bb9
Encoding settings : cabac=1 / ref=5 / deblock=1:0:0 / analyse=0x3:0x133 / me=umh / subme=11 / psy=1 / psy_rd=1.00:0.00 / mixed_ref=1 / me_range=32 / chroma_me=1 / trellis=2 / 8x8dct=1 / cqm=0 / deadzone=21,11 / fast_pskip=0 / chroma_qp_offset=-2 / threads=6 / lookahead_threads=1 / sliced_threads=0 / nr=0 / decimate=1 / interlaced=0 / bluray_compat=0 / constrained_intra=0 / bframes=8 / b_pyramid=2 / b_adapt=2 / b_bias=0 / direct=3 / weightb=1 / open_gop=0 / weightp=2 / keyint=240 / keyint_min=24 / scenecut=40 / intra_refresh=0 / rc_lookahead=50 / rc=2pass / mbtree=0 / bitrate=6450 / ratetol=2.0 / qcomp=1.00 / qpmin=0 / qpmax=51 / qpstep=4 / cplxblur=20.0 / qblur=0.5 / vbv_maxrate=50000 / vbv_bufsize=50000 / nal_hrd=none / filler=0 / ip_ratio=1.40 / pb_ratio=1.30 / aq=1:1.00
Color primaries : BT.709-5, BT.1361, IEC 61966-2-4, SMPTE RP177
Transfer characteristics : BT.709-5, BT.1361
Matrix coefficients : BT.709-5, BT.1361, IEC 61966-2-4 709, SMPTE RP177

Audio #1
ID : 2
Format : AC-3
Format/Info : Audio Coding 3
Mode extension : CM (complete main)
Codec ID : A_AC3
Duration : 1h 33mn
Bit rate mode : Constant
Bit rate : 448 Kbps
Channel(s) : 6 channels
Channel positions : Front: L C R, Side: L R, LFE
Sampling rate : 48.0 KHz
Bit depth : 16 bits
Stream size : 298 MiB (5%)
Language : Russian

Audio #2
ID : 3
Format : DTS
Format/Info : Digital Theater Systems
Codec ID : A_DTS
Duration : 1h 33mn
Bit rate mode : Constant
Bit rate : 1 510 Kbps
Channel(s) : 6 channels
Channel positions : Front: L C R, Side: L R, LFE
Sampling rate : 48.0 KHz
Bit depth : 24 bits
Stream size : 1 005 MiB (17%)
Language : Russian

Audio #3
ID : 4
Format : AC-3
Format/Info : Audio Coding 3
Mode extension : CM (complete main)
Codec ID : A_AC3
Duration : 1h 33mn
Bit rate mode : Constant
Bit rate : 448 Kbps
Channel(s) : 6 channels
Channel positions : Front: L C R, Side: L R, LFE
Sampling rate : 48.0 KHz
Bit depth : 16 bits
Stream size : 298 MiB (5%)
Language : Japanese

Text
ID : 5
Format : UTF-8
Codec ID : S_TEXT/UTF8
Codec ID/Info : UTF-8 Plain Text
Language : Russian

Menu
00:00:00.000 : en:00:00:00.000
00:04:02.117 : en:00:04:02.117
00:17:22.166 : en:00:17:22.166
00:31:43.110 : en:00:31:43.110
00:53:30.958 : en:00:53:30.958
01:04:35.622 : en:01:04:35.622
01:13:04.380 : en:01:13:04.380
01:26:28.225 : en:01:26:28.225
01:27:28.785 : en:01:27:28.785
01:32:47.979 : en:01:32:47.979





Релиз группы:
загрузка...
Правила, инструкции, FAQ!!!
Торрент  Добавлен [31 дек 2013, 10:42] Анимэ Скачать торрент
Скачать торрент
[ Размер 29.26 КБ / Просмотров 16 ]

Статус  
 
Размер  5.76 ГБ
Приватный: Нет (DHT включён)
.torrent скачан  25
Как залить торрент? | Как скачать Torrent? | Как смотреть и слушать онлайн?  


     Отправить личное сообщение
   
Страница 1 из 1
Показать сообщения за:  Поле сортировки  
Начать новую тему Ответить на тему

   Похожие торренты   Автор   Ответы   Просмотры   Последнее сообщение 
В этой теме нет новых непрочитанных сообщений. Скачать торрент Берсерк. Золотой век: Фильм I. Бехерит Властителя / Berserk Ogon Jidai-hen I: Hao no Tamago (2012) BDRip 1080p

в форуме Анимэ, Размер: 4.37 ГБ, Здоровье: 100%

Anonymous

0
14|0

224
10

31 дек 2013, 10:39

Anonymous Перейти к последнему сообщению

В этой теме нет новых непрочитанных сообщений. Скачать торрент АББА: фильм / ABBA: The Movie (1977) BDRip 1080p

в форуме Клипы (HD-Video), Размер: 4.38 ГБ, Здоровье: 100%

Anonymous

0
92|6

435
23

30 мар 2014, 23:44

Anonymous Перейти к последнему сообщению

В этой теме нет новых непрочитанных сообщений. Скачать торрент Проверен Битва за Севастополь (2015) BDRip 1080p | Лицензия

в форуме Наше кино (HD Video), Размер: 10.42 ГБ, Здоровье: 34%

Гость

0
166|488

193
29

16 май 2015, 10:39

Гость Перейти к последнему сообщению

В этой теме нет новых непрочитанных сообщений. Скачать торрент Проверен Битва у Красной скалы / Red Cliff / Chi bi (2008) BDRip 1080p | D | Theatrical cut

в форуме 720p | 1080p, Размер: 11.55 ГБ, Здоровье: 100%

Anonymous

0
84|49

74
129

08 ноя 2014, 22:36

Anonymous Перейти к последнему сообщению

В этой теме нет новых непрочитанных сообщений. Скачать торрент Проверен Старик Хоттабыч (Геннадий Казанский) [1956, СССР, Фильм-сказка, BDRip 1080p] + Original Rus

в форуме Наше кино (HD Video), Размер: 7.95 ГБ, Здоровье: 100%

Anonymous

0
66|21

53
1

12 апр 2015, 11:06

Anonymous Перейти к последнему сообщению



Сейчас этот форум просматривают: нет зарегистрированных пользователей и гости: 1


Вы не можете начинать темы
Вы не можете отвечать на сообщения
Вы не можете редактировать свои сообщения
Вы не можете удалять свои сообщения
Вы не можете добавлять вложения

Перейти:  

!ВНИМАНИЕ!
 Ресурс не предоставляет электронные версии произведений, а занимается лишь коллекционированием и каталогизацией ссылок, присылаемых и публикуемых на форуме нашими читателями. Если вы являетесь правообладателем какого-либо представленного материала и не желаете чтобы ссылка на него находилась в нашем каталоге, свяжитесь с нами и мы незамедлительно удалим её. Файлы для обмена на трекере предоставлены пользователями сайта, и администрация не несёт ответственности за их содержание. Просьба не заливать файлы, защищенные авторскими правами, а также файлы нелегального содержания!