На всех торрентах на трекере установлена скидка на скачивание в размере 100 процентов(а).
 Возможность скачивания торрента НЕ зависит от ограничений при низком ратио, низком аплоаде, требуемом ратио или требуемом аплоаде.


Начать новую тему Ответить на тему
Статистика раздачи
Размер: 1.47 ГБ | Добавлен: 21 окт 2014, 20:55 | Скачали: 1
Сидеров: 43  [0 байт/сек]    Личеров: 13  [0 байт/сек]
Пред. тема | След. тема 

Автор
Сообщение

СообщениеДобавлено: 21 окт 2014, 20:55 

Ответить с цитатой 

Весна на Заречной улице

Жанр: мелодрама
Год выпуска: 1956
Продолжительность: 01:36:02

Режиссеры: Феликс Миронер, Марлен Хуциев

В ролях: Нина Иванова, Николай Рыбников, Владимир Гуляев, Валентина Пугачева, Геннадий Юхтин, Римма Шорохова, Николай Ключнев, Марина Гаврилко, Юрий Белов, Валентин Брылеев

Описание: Выпускница педагогического института приезжает по распределению в индустриальный поселок, в вечернюю школу. Ее ученики оказываются ее ровесниками...
Культовая картина, образец того, как можно снять хорошее кино, не имея бюджета, техники, раскрученных "звезд" и даже цветной кинопленки.


Семпл: http://multi-up.com/796535

Качество видео: BDRip-AVC
Формат видео: MKV

Видео: 956x692 (1.38:1), 23.976 fps, AVC (H.264) ~2007 kbps avg, 0.127 bit/pixel
Аудио: 48 kHz, AC3, 1 ch, ~224 kbps avg
General
Unique ID : 238600753620979029391534029614550287258 (0xB380D567CE477835A9B44F8097AB039A)
Complete name : D:\КИНО\Весна на Заречной улице.mkv
Format : Matroska
Format version : Version 2
File size : 1.47 GiB
Duration : 1h 34mn
Overall bit rate : 2 233 Kbps
Encoded date : UTC 2012-11-29 10:20:51
Writing application : mkvmerge v4.0.0 ('The Stars were mine') сборка от Jun 6 2010 16:18:42
Writing library : libebml v1.0.0 + libmatroska v1.0.0

Video
ID : 1
Format : AVC
Format/Info : Advanced Video Codec
Format profile : High@L4.1
Format settings, CABAC : Yes
Format settings, ReFrames : 12 frames
Codec ID : V_MPEG4/ISO/AVC
Duration : 1h 34mn
Bit rate : 2 007 Kbps
Width : 956 pixels
Height : 692 pixels
Display aspect ratio : 1.382
Frame rate : 23.976 fps
Color space : YUV
Chroma subsampling : 4:2:0
Bit depth : 8 bits
Scan type : Progressive
Bits/(Pixel*Frame) : 0.127
Stream size : 1.29 GiB (88%)
Writing library : x264 core 125 r2200 999b753
Encoding settings : cabac=1 / ref=12 / deblock=1:-2:-1 / analyse=0x3:0x133 / me=umh / subme=10 / psy=1 / psy_rd=1.00:0.00 / mixed_ref=1 / me_range=24 / chroma_me=1 / trellis=2 / 8x8dct=1 / cqm=0 / deadzone=21,11 / fast_pskip=1 / chroma_qp_offset=-2 / threads=3 / lookahead_threads=1 / sliced_threads=0 / nr=0 / decimate=1 / interlaced=0 / bluray_compat=0 / constrained_intra=0 / bframes=8 / b_pyramid=2 / b_adapt=2 / b_bias=0 / direct=3 / weightb=1 / open_gop=0 / weightp=2 / keyint=240 / keyint_min=23 / scenecut=40 / intra_refresh=0 / rc_lookahead=60 / rc=2pass / mbtree=1 / bitrate=2007 / ratetol=1.0 / qcomp=0.60 / qpmin=10 / qpmax=51 / qpstep=4 / cplxblur=20.0 / qblur=0.5 / vbv_maxrate=50000 / vbv_bufsize=50000 / nal_hrd=none / ip_ratio=1.40 / aq=1:1.00

Audio
ID : 2
Format : AC-3
Format/Info : Audio Coding 3
Mode extension : CM (complete main)
Codec ID : A_AC3
Duration : 1h 34mn
Bit rate mode : Constant
Bit rate : 224 Kbps
Channel(s) : 1 channel
Channel positions : Front: C
Sampling rate : 48.0 KHz
Bit depth : 16 bits
Compression mode : Lossy
Stream size : 151 MiB (10%)
-[NoImage] avs [info]: 956x692p 1:1 @ 24000/1001 fps (cfr)
-[NoImage] x264 [info]: using SAR=1/1
-[NoImage] x264 [info]: using cpu capabilities: MMX2 SSE2Fast FastShuffle SSEMisalign LZCNT
-[NoImage] x264 [info]: profile High, level 4.1
-[NoImage]
-[NoImage] x264 [info]: frame I:723 Avg QP:18.95 size: 66160
-[NoImage] x264 [info]: frame P:26107 Avg QP:20.43 size: 26741
-[NoImage] x264 [info]: frame B:108407 Avg QP:23.37 size: 6174
-[NoImage] x264 [info]: consecutive B-frames: 0.8% 0.6% 3.5% 15.2% 20.3% 52.4% 5.4% 1.3% 0.6%
-[NoImage] x264 [info]: mb I I16..4: 6.7% 77.7% 15.6%
-[NoImage] x264 [info]: mb P I16..4: 0.3% 6.1% 1.3% P16..4: 46.1% 23.7% 16.3% 1.2% 0.3% skip: 4.6%
-[NoImage] x264 [info]: mb B I16..4: 0.0% 0.4% 0.1% B16..8: 48.6% 8.8% 1.9% direct: 3.4% skip:36.8% L0:44.6% L1:48.5% BI: 6.9%
-[NoImage] x264 [info]: 8x8 transform intra:79.2% inter:67.3%
-[NoImage] x264 [info]: direct mvs spatial:99.8% temporal:0.2%
-[NoImage] x264 [info]: coded y,uvDC,uvAC intra: 90.4% 0.0% 0.0% inter: 20.2% 0.0% 0.0%
-[NoImage] x264 [info]: i16 v,h,dc,p: 29% 14% 7% 51%
-[NoImage] x264 [info]: i8 v,h,dc,ddl,ddr,vr,hd,vl,hu: 14% 6% 3% 10% 16% 15% 14% 12% 10%
-[NoImage] x264 [info]: i4 v,h,dc,ddl,ddr,vr,hd,vl,hu: 18% 5% 2% 9% 15% 15% 14% 11% 11%
-[NoImage] x264 [info]: i8c dc,h,v,p: 100% 0% 0% 0%
-[NoImage] x264 [info]: Weighted P-Frames: Y:11.2% UV:0.0%
-[NoImage] x264 [info]: ref P L0: 40.8% 13.9% 17.1% 5.8% 5.6% 3.7% 3.9% 1.9% 2.1% 1.6% 1.8% 1.6% 0.3% 0.0%
-[NoImage] x264 [info]: ref B L0: 76.9% 10.2% 4.3% 2.3% 1.6% 1.4% 1.1% 0.7% 0.6% 0.4% 0.2%
-[NoImage] x264 [info]: ref B L1: 94.3% 5.7%
-[NoImage] x264 [info]: kb/s:2007.25
-[NoImage] encoded 135237 frames, 3.30 fps, 2007.25 kb/s
загрузка...
Правила, инструкции, FAQ!!!
Торрент  Добавлен [21 окт 2014, 20:55] Скачать торрент Магнет ссылка
Скачать торрент
[ Размер 15.27 КБ / Просмотров 10 ]

Статус
Проверен 
 
Размер  1.47 ГБ
Приватный: Нет (DHT включён)
.torrent скачан  1
Как залить торрент? | Как скачать Torrent? | Ошибка в торренте? Качайте магнет  


     Отправить личное сообщение
   
Страница 1 из 1
Показать сообщения за:  Поле сортировки  
Начать новую тему Ответить на тему

   Похожие торренты   Автор   Ответы   Просмотры   Последнее сообщение 
В этой теме нет новых непрочитанных сообщений. Скачать торрент Проверен Карнавальная ночь (Эльдар Рязанов) [1956, СССР, мюзикл, мелодрама, комедия, BDRip 1080p]

в форуме Наше кино (HD Video), Размер: 8.15 ГБ, Здоровье: 100%

Anonymous

0
88|23

103
6

12 апр 2015, 11:05

Anonymous Перейти к последнему сообщению

В этой теме нет новых непрочитанных сообщений. Скачать торрент Проверен Кошмар на улице Вязов / A Nightmare on Elm Street (1984) BDRip 720p

в форуме 720p | 1080p, Размер: 3.54 ГБ, Здоровье: 100%

Anonymous

0
23|2

63
360

17 авг 2014, 07:59

Anonymous Перейти к последнему сообщению

В этой теме нет новых непрочитанных сообщений. Скачать торрент Проверен Кошмар на улице Вязов 7 / New Nightmare (1994) BDRip 720p от Leonardo and Scarabey

в форуме 720p | 1080p, Размер: 3.2 ГБ, Здоровье: 100%

Anonymous

0
5|2

66
169

17 авг 2014, 08:27

Anonymous Перейти к последнему сообщению

В этой теме нет новых непрочитанных сообщений. Скачать торрент Проверен Кошмар на улице Вязов 5: Дитя сна / A Nightmare on Elm Street: The Dream Child (1989) BDRip 720p

в форуме 720p | 1080p, Размер: 3.5 ГБ, Здоровье: 100%

Anonymous

0
6|2

112
144

17 авг 2014, 08:21

Anonymous Перейти к последнему сообщению

В этой теме нет новых непрочитанных сообщений. Скачать торрент Проверен Кошмар на улице Вязов 3: Воины сна / A Nightmare on Elm Street 3: Dream Warriors (1987) BDRip 720p

в форуме 720p | 1080p, Размер: 3.15 ГБ, Здоровье: 100%

Anonymous

0
23|3

56
217

17 авг 2014, 08:15

Anonymous Перейти к последнему сообщению



Сейчас этот форум просматривают: нет зарегистрированных пользователей и гости: 0


Вы не можете начинать темы
Вы не можете отвечать на сообщения
Вы не можете редактировать свои сообщения
Вы не можете удалять свои сообщения
Вы не можете добавлять вложения

Перейти:  
Ресурс не предоставляет электронные версии произведений, а занимается лишь коллекционированием и каталогизацией ссылок, присылаемых и публикуемых на форуме нашими читателями. Если вы являетесь правообладателем какого-либо представленного материала и не желаете чтобы ссылка на него находилась в нашем каталоге, свяжитесь с нами и мы незамедлительно удалим её. Файлы для обмена на трекере предоставлены пользователями сайта, и администрация не несёт ответственности за их содержание. Просьба не заливать файлы, защищенные авторскими правами, а также файлы нелегального содержания!
cron