На всех торрентах на трекере установлена скидка на скачивание в размере 100 процентов(а).
 Возможность скачивания торрента НЕ зависит от ограничений при низком ратио, низком аплоаде, требуемом ратио или требуемом аплоаде.


Начать новую тему Ответить на тему
Статистика раздачи
Размер: 1.48 ГБ | Добавлен: 11 июн 2018, 09:30 | Скачали: 0
Сидеров: 11  [0 байт/сек]    Личеров: 4  [0 байт/сек]
Пред. тема | След. тема 

Автор
Сообщение

СообщениеДобавлено: 11 июн 2018, 09:30 

Ответить с цитатой 

Великая стена / The Great Wall
Страна: США, Китай, Гонконг, Австралия, Канада
Жанр: боевик, приключения, триллер
Год выпуска: 2016
Продолжительность: 01:43:03
Перевод: Авторский (одноголосый закадровый) Андрей Гаврилов
Субтитры: нет
Режиссер: Чжан Имоу / Zhang Yimou
В ролях: Мэтт Дэймон, Уиллем Дефо, Энди Лау, Нуман Акар, Педро Паскаль, Чжан Ханьюй, Тиан Джин, Лу Хань, Эдди Пэн
Описание: Экспедиция смельчаков снарядилась и отправилась за порохом, его должны были найти и привезти в Европу. Тогда они и повстречали на своем пути мистических существ. Потревоженные чудища накинулись на экспедицию. Уцелеть посчастливилось только двоим. Люди решили, что они попали в самый эпицентр противостояний между страшными чудовищами и посвященными в тайны воинами. Оказывается, эта стена была возведена не для ограждения от кочевников, а для защиты китайского населения от необычных мистических существ, имеющих ужасающую силу, уничтожающую все живое и нужно было построить крепкое ограждающее сооружение от этих тварей...
Сэмпл: http://multi-up.com/1200497
Качество видео: BDRip (Исходник THE_GREAT_WALL_BDremux_FilmsClub)
Формат видео: AVI
Видео: XviD 73, 720x304, (2,35:1), 23,976 fps, 1594 Кбит/с, 8 бит, 0.30 bit/pixel
Аудио: Русский (АС3, 6 ch (Front: L C R, Side: L R, LFE), 48,0 KHz, 448 Kbps)
Код:
Общее
Полное имя                               : H:\Фильмы на трекер\Великая стена   (боевик, приключения 2016 год).avi
Формат                                   : AVI
Формат/Информация                        : Audio Video Interleave
Размер файла                             : 1,48 Гбайт
Продолжительность                        : 1 ч. 43 м.
Общий поток                              : 2051 Кбит/сек
Программа кодирования                    : VirtualDubMod 1.5.10.2 (build 2540/release)
Библиотека кодирования                   : VirtualDubMod build 2540/release
Видео
Идентификатор                            : 0
Формат                                   : MPEG-4 Visual
Профиль формата                          : Advanced Simple@L5
Параметр BVOP формата                    : 2
Параметр QPel формата                    : Нет
Параметр GMC формата                     : Без точки перехода
Параметр матрицы формата                 : Выборочная
Идентификатор кодека                     : XVID
Идентификатор кодека/Подсказка           : XviD
Продолжительность                        : 1 ч. 43 м.
Битрейт                                  : 1594 Кбит/сек
Ширина                                   : 720 пикселей
Высота                                   : 304 пикселя
Соотношение сторон                       : 2,35:1
Частота кадров                           : 23,976 (23976/1000) кадра/сек
Цветовое пространство                    : YUV
Субдискретизация насыщенности            : 4:2:0
Битовая глубина                          : 8 бит
Тип развёртки                            : Прогрессивная
Метод сжатия                             : С потерями
Бит/(Пиксели*Кадры)                      : 0.304
Размер потока                            : 1,15 Гбайт (78%)
Библиотека кодирования                   : XviD 73
Аудио
Идентификатор                            : 1
Формат                                   : AC-3
Формат/Информация                        : Audio Coding 3
Расширение режима                        : CM (complete main)
Параметр Endianness формата              : Big
Идентификатор кодека                     : 2000
Продолжительность                        : 1 ч. 43 м.
Вид битрейта                             : Постоянный
Битрейт                                  : 448 Кбит/сек
Каналы                                   : 6 каналов
Расположение каналов                     : Front: L C R, Side: L R, LFE
Частота                                  : 48,0 КГц
Частота кадров                           : 31,250 кадров/сек (1536 spf)
Метод сжатия                             : С потерями
Размер потока                            : 330 Мбайт (22%)
Выравнивание                             : Разделение по промежуткам
Продолжительность промежутка             : 42  мс. (1,00 видеокадр)
Время предзагрузки промежутка            : 500  мс.
Правила, инструкции, FAQ!!!
Торрент  Добавлен [11 июн 2018, 09:30] Скачать торрент Магнет ссылка
Скачать торрент
[ Размер 15.28 КБ / Просмотров 16 ]

Статус
Проверен 
 
Размер  1.48 ГБ
Приватный: Нет (DHT включён)
.torrent скачан  0
Как залить торрент? | Как скачать Torrent? | Ошибка в торренте? Качайте магнет  


     Отправить личное сообщение
   
Страница 1 из 1
Показать сообщения за:  Поле сортировки  
Начать новую тему Ответить на тему

   Похожие торренты   Автор   Ответы   Просмотры   Последнее сообщение 
В этой теме нет новых непрочитанных сообщений. Скачать торрент Проверен Великая стена / The Great Wall (Чжан Имоу / Zhang Yimou) [2016, США, Китай, Гонконг, Австралия, Канада, фэнтези, боевик, триллер, приключения, BDRip-AVC] Dub + Sub Rus

в форуме Фильмы 2016-2017, Размер: 746.27 МБ, Здоровье: 0%

Anonymous

0
0|0

7
0

03 фев 2018, 20:07

Anonymous Перейти к последнему сообщению

В этой теме нет новых непрочитанных сообщений. Скачать торрент Проверен Великая стена / The Great Wall (Чжан Имоу / Zhang Yimou) [2016, США, Китай, Гонконг, Австралия, Канада, Фэнтези, боевик, триллер, приключения, BDRip-AVC] Dub + Sub Rus, Eng + Original Eng

в форуме Фильмы 2016-2017, Размер: 3.63 ГБ, Здоровье: 0%

Anonymous

0
0|0

7
0

03 фев 2018, 20:20

Anonymous Перейти к последнему сообщению

В этой теме нет новых непрочитанных сообщений. Скачать торрент Проверен Великая стена / The Great Wall (Чжан Имоу / Zhang Yimou) [2016, США, Китай, Гонконг, Австралия, Канада, фэнтези, боевик, триллер, приключения, BDRip] Dub + Sub Rus, Eng + Original Eng

в форуме Фильмы 2016-2017, Размер: 2.05 ГБ, Здоровье: 0%

Anonymous

0
0|0

9
0

03 фев 2018, 21:11

Anonymous Перейти к последнему сообщению

В этой теме нет новых непрочитанных сообщений. Скачать торрент Проверен Великая стена / The Great Wall (Чжан Имоу / Zhang Yimou) [2016, США, Китай, Гонконг, Австралия, Канада, фэнтези, боевик, триллер, приключения, WEB-DLRip] Dub

в форуме Фильмы 2016-2017, Размер: 741.53 МБ, Здоровье: 100%

Anonymous

0
14|4

9
0

03 фев 2018, 19:44

Anonymous Перейти к последнему сообщению

В этой теме нет новых непрочитанных сообщений. Скачать торрент Проверен Великая стена / The Great Wall (Чжан Имоу / Zhang Yimou) [2016, США, Китай, Гонконг, Австралия, Канада, фэнтези, боевик, триллер, BDRip-AVC] Dub + Sub (rus)

в форуме Фильмы 2016-2017, Размер: 1.46 ГБ, Здоровье: 0%

Anonymous

0
0|0

11
0

03 фев 2018, 19:43

Anonymous Перейти к последнему сообщению



Сейчас этот форум просматривают: нет зарегистрированных пользователей и гости: 0


Вы не можете начинать темы
Вы не можете отвечать на сообщения
Вы не можете редактировать свои сообщения
Вы не можете удалять свои сообщения
Вы не можете добавлять вложения

Перейти:  
Ресурс не предоставляет электронные версии произведений, а занимается лишь коллекционированием и каталогизацией ссылок, присылаемых и публикуемых на форуме нашими читателями. Если вы являетесь правообладателем какого-либо представленного материала и не желаете чтобы ссылка на него находилась в нашем каталоге, свяжитесь с нами и мы незамедлительно удалим её. Файлы для обмена на трекере предоставлены пользователями сайта, и администрация не несёт ответственности за их содержание. Просьба не заливать файлы, защищенные авторскими правами, а также файлы нелегального содержания!
cron