На всех торрентах на трекере установлена скидка на скачивание в размере 100 процентов(а).
 Возможность скачивания торрента НЕ зависит от ограничений при низком ратио, низком аплоаде, требуемом ратио или требуемом аплоаде.


Начать новую тему Ответить на тему
Статистика раздачи
Размер: 1.88 ГБ | Добавлен: 23 окт 2016, 13:57 | Скачали: 1
Сидеров: 8  [0 байт/сек]    Личеров: 2  [0 байт/сек]
Пред. тема | След. тема 

Автор
Сообщение

СообщениеДобавлено: 23 окт 2016, 13:57 

Ответить с цитатой 



WORLD TOUR 2013 in LONDON

WOWOW 2013.11.24






Жанр: JRock ││ Продолжительность: 01:26:35 ││ Год выпуска: 2013




01. VAMPIRE DEPRESSION
02. DEVIL SIDE
03. REDRUM
04. THE PAST
05. SECRET IN MY HEART
06. REPLAY
07. GET UP
08. MEMORIES
09. MY FIRST LAST
10. Life On Mars?
11. HUNTING
12. AHEAD
13. ANGEL TRIP
14. TROUBLE
15. MIDNIGHT CELEBRATION
16. REVOLUTION II
17. SWEET DREAMS
18. LOVE ADDICT
19. SEX BLOOD ROCK N' ROLL




Качество: HDTVRip 720p
Контейнер: MP4
Видео кодек: H.264
Аудио кодек: AAC
Видео: 2910 kbps, 1280x720 (16:9), 29.970 fps
Аудио: 192 kbps, 2 ch, 48,0 kHz
Код:
Общее
Полное имя                               : *:\***\VAMPS – WORLD TOUR 2013 in LONDON\VAMPS – WORLD TOUR 2013 in LONDON (WOWOW 2013.11.24).mp4
Формат                                   : MPEG-4
Профиль формата                          : Base Media / Version 2
Идентификатор кодека                     : mp42
Размер файла                             : 1,88 Гбайт
Продолжительность                        : 1 ч. 26 м.
Общий поток                              : 3106 Кбит/сек
Дата кодирования                         : UTC 2013-11-12 08:53:01
Дата пометки                             : UTC 2013-11-12 08:53:01
Библиотека кодирования                   : AVS

Видео
Идентификатор                            : 1
Формат                                   : AVC
Формат/Информация                        : Advanced Video Codec
Профиль формата                          : Baseline@L1.3
Параметр CABAC формата                   : Нет
Параметр ReFrames формата                : 1 кадр
Идентификатор кодека                     : avc1
Идентификатор кодека/Информация          : Advanced Video Coding
Продолжительность                        : 1 ч. 26 м.
Битрейт                                  : 2910 Кбит/сек
Ширина                                   : 1280 пикселей
Высота                                   : 720 пикселей
Соотношение сторон                       : 16:9
Режим частоты кадров                     : Постоянный
Частота кадров                           : 29,970 кадров/сек
Цветовое пространство                    : YUV
Субдискретизация насыщенности            : 4:2:0
Битовая глубина                          : 8 бит
Тип развёртки                            : Прогрессивная
Бит/(Пиксели*Кадры)                      : 0.105
Размер потока                            : 1,76 Гбайт (94%)
Язык                                     : English
Дата кодирования                         : UTC 2013-11-12 08:53:01
Дата пометки                             : UTC 2013-11-12 08:53:01
Основные цвета                           : BT.709-2, SMPTE 274M, SMPTE 296M
Характеристики трансфера                 : BT.709-2, SMPTE 170M, SMPTE 274M, SMPTE 293M, SMPTE 296M
Коэффициенты матрицы                     : BT.709-2, SMPTE 274M, SMPTE 296M

Аудио
Идентификатор                            : 2
Формат                                   : AAC
Формат/Информация                        : Advanced Audio Codec
Профиль формата                          : LC
Идентификатор кодека                     : 40
Продолжительность                        : 1 ч. 26 м.
Вид битрейта                             : Постоянный
Битрейт                                  : 192 Кбит/сек
Каналы                                   : 2 канала
Расположение каналов                     : Front: L R
Частота                                  : 48,0 КГц
Метод сжатия                             : С потерями
Размер потока                            : 117 Мбайт (6%)
Язык                                     : English
Дата кодирования                         : UTC 2013-11-12 08:53:01
Дата пометки                             : UTC 2013-11-12 08:53:01
загрузка...
Правила, инструкции, FAQ!!!
Торрент  Добавлен [23 окт 2016, 13:57] Скачать торрент
Скачать торрент
[ Размер 19.26 КБ / Просмотров 13 ]

Статус
Проверен 
 
Размер  1.88 ГБ
Приватный: Нет (DHT включён)
.torrent скачан  1
Как залить торрент? | Как скачать Torrent? | Как смотреть и слушать онлайн?  


     Отправить личное сообщение
   
Страница 1 из 1
Показать сообщения за:  Поле сортировки  
Начать новую тему Ответить на тему

   Похожие торренты   Автор   Ответы   Просмотры   Последнее сообщение 
В этой теме нет новых непрочитанных сообщений. Скачать торрент Проверен ONE OK ROCK - JINSEI x KIMI = TOUR [2013, JRock, HDTVRip 720p]

в форуме Концерты (HD-Video), Размер: 2.86 ГБ, Здоровье: 100%

Anonymous

0
2|1

7
0

23 окт 2016, 12:26

Anonymous Перейти к последнему сообщению

В этой теме нет новых непрочитанных сообщений. Скачать торрент Проверен Alice Nine - World`s End Daybreak -Okyakusama Daiichi Shugi- @Shibuya Public Hall [M-ON! Live] [2013, JRock, HDTVRip 720p]

в форуме Концерты (HD-Video), Размер: 1.92 ГБ, Здоровье: 100%

Anonymous

0
1|0

11
0

23 окт 2016, 15:51

Anonymous Перейти к последнему сообщению

В этой теме нет новых непрочитанных сообщений. Скачать торрент Проверен SCANDAL - ARENA TOUR 2015-2016 "PERFECT WORLD" (WOWOW Live 2016.01.13) [2016, JRock, HDTVRip 720p]

в форуме Концерты (HD-Video), Размер: 3.74 ГБ, Здоровье: 100%

Anonymous

0
4|1

33
0

23 окт 2016, 19:32

Anonymous Перейти к последнему сообщению

В этой теме нет новых непрочитанных сообщений. Скачать торрент Проверен VAMPS - Documentary 2012 [2013, JRock, HDRip]

в форуме Концерты (HD-Video), Размер: 4.02 ГБ, Здоровье: 100%

Anonymous

0
3|1

7
1

23 окт 2016, 13:57

Anonymous Перейти к последнему сообщению

В этой теме нет новых непрочитанных сообщений. Скачать торрент Проверен Scandal - Osaka-Jo Hall 2013 Wonderful Tonight [2013, JRock, JPop, HDTVRip 720p]

в форуме Концерты (HD-Video), Размер: 5.68 ГБ, Здоровье: 100%

Anonymous

0
2|0

88
1

03 май 2015, 22:13

Anonymous Перейти к последнему сообщению



Сейчас этот форум просматривают: нет зарегистрированных пользователей и гости: 2


Вы не можете начинать темы
Вы не можете отвечать на сообщения
Вы не можете редактировать свои сообщения
Вы не можете удалять свои сообщения
Вы не можете добавлять вложения

Перейти:  

!ВНИМАНИЕ!
 Ресурс не предоставляет электронные версии произведений, а занимается лишь коллекционированием и каталогизацией ссылок, присылаемых и публикуемых на форуме нашими читателями. Если вы являетесь правообладателем какого-либо представленного материала и не желаете чтобы ссылка на него находилась в нашем каталоге, свяжитесь с нами и мы незамедлительно удалим её. Файлы для обмена на трекере предоставлены пользователями сайта, и администрация не несёт ответственности за их содержание. Просьба не заливать файлы, защищенные авторскими правами, а также файлы нелегального содержания!