На всех торрентах на трекере установлена скидка на скачивание в размере 100 процентов(а).
 Возможность скачивания торрента НЕ зависит от ограничений при низком ратио, низком аплоаде, требуемом ратио или требуемом аплоаде.


Начать новую тему Ответить на тему
Статистика раздачи
Размер: 1.45 ГБ | Добавлен: 17 фев 2014, 11:46 | Скачали: 0
Сидеров: 0  [0 байт/сек]    Личеров: 0  [0 байт/сек]
Пред. тема | След. тема 

Автор
Сообщение

СообщениеДобавлено: 17 фев 2014, 11:46 

Вампирша / Rise: Blood Hunter


Страна: США, Новая Зеландия
Жанр: ужасы, боевик, триллер, детектив
Год выпуска: 2007
Продолжительность: 01:33:30

Перевод: Профессиональный (дублированный)
Cубтитры: нет
Режиссер: Себастьян Гутиеррес / Sebastian Gutierrez

В ролях: Роберт Форстер, Кэмерон Ричардсон, Люси Лью, Аллан Рич, Саманта Шелтон, Кевин Уитли, Марго Харшман, Камерон Гудман, Холт МакКэллани, Джеймс Д’Арси

Описание: Молодая журналистка Сэди пытается выяснить, почему в их городе случаются странные и страшные кровавые убийства. Вампиры, которые являются прямыми участниками этих убийств, решают, что она слишком глубоко засунула свой нос в их дела. Поймав девушку, они кусают ее…

Ночью Сэди просыпается в морге и обнаруживает на шее следы укусов. Понимая, что стала вампиршей, она клянется отомстить тем, кто превратил ее в кровопийцу, и пускается по следу упырей, пересекаясь с детективом Роулинсом, чья дочь была убита той же бандой.

Сэмпл: http://multi-up.com/641657

Качество видео: BDRip
Формат видео: AVI

Видео: 720x400 (1.80:1), 25 fps, XviD build 50 ~1830 kbps avg, 0.25 bit/pixel
Аудио: 48 kHz, AC3 Dolby Digital, 3/2 (L,C,R,l,r) LFE ch, ~384 kbps / Dub

MediaInfo
General
Complete name : C:\Users\Sirius\Downloads\Rise.2007.BDRip.avi
Format : AVI
Format/Info : Audio Video Interleave
File size : 1.45 GiB
Duration : 1h 33mn
Overall bit rate : 2 224 Kbps
Movie name : Rise.2007.BDRip
Director : St-ig ©
Writing application : VirtualDubMod 1.5.10.2 (build 2540/release)

Video
ID : 0
Format : MPEG-4 Visual
Format profile : Advanced Simple@L5
Format settings, BVOP : 1
Format settings, QPel : No
Format settings, GMC : No warppoints
Format settings, Matrix : Custom
Codec ID : XVID
Codec ID/Hint : XviD
Duration : 1h 33mn
Bit rate : 1 830 Kbps
Width : 720 pixels
Height : 400 pixels
Display aspect ratio : 16:9
Frame rate : 25.000 fps
Color space : YUV
Chroma subsampling : 4:2:0
Bit depth : 8 bits
Scan type : Progressive
Compression mode : Lossy
Bits/(Pixel*Frame) : 0.254
Stream size : 1.20 GiB (82%)
Writing library : XviD 1.2.1 (UTC 2008-12-04)

Audio
ID : 1
Format : AC-3
Format/Info : Audio Coding 3
Mode extension : CM (complete main)
Codec ID : 2000
Duration : 1h 33mn
Bit rate mode : Constant
Bit rate : 384 Kbps
Channel(s) : 6 channels
Channel positions : Front: L C R, Side: L R, LFE
Sampling rate : 48.0 KHz
Bit depth : 16 bits
Compression mode : Lossy
Stream size : 257 MiB (17%)
Alignment : Split accross interleaves
Interleave, duration : 40 ms (1.00 video frame)
Interleave, preload duration : 500 ms

загрузка...
Правила, инструкции, FAQ!!!
Торрент  Добавлен [17 фев 2014, 11:46] Скачать торрент
Скачать торрент
[ Размер 15.11 КБ / Просмотров 3 ]

Статус  
 
Размер  1.45 ГБ
Приватный: Нет (DHT включён)
.torrent скачан  0
Как залить торрент? | Как скачать Torrent? | Как смотреть и слушать онлайн?  


     Отправить личное сообщение
   
Страница 1 из 1
Показать сообщения за:  Поле сортировки  
Начать новую тему Ответить на тему

   Похожие торренты   Автор   Ответы   Просмотры   Последнее сообщение 
В этой теме нет новых непрочитанных сообщений. Скачать торрент Проверен [iPad] Другой мир: Восстание ликанов / Underworld: Rise of the Lycans (Патрик Татопулос/ Patrick Tatopoulos) [2009, США, Ужасы, боевик, триллер, BDRip, 576p] Dub + Original + sub (rus, eng)

в форуме Фильмы для iPod, iPhone, iPad, Размер: 1.6 ГБ, Здоровье: 100%

Anonymous

0
6|1

67
2

18 май 2015, 10:48

Anonymous Перейти к последнему сообщению

В этой теме нет новых непрочитанных сообщений. Скачать торрент Проверен [iPod] Стрелок / Shooter (Антуан Фукуа) [2007 г., боевик, триллер, криминал, детектив, BDRip]

в форуме Фильмы для iPod, iPhone, iPad, Размер: 580.22 МБ, Здоровье: 100%

Anonymous

0
1|0

49
1

18 май 2015, 10:46

Anonymous Перейти к последнему сообщению

В этой теме нет новых непрочитанных сообщений. Скачать торрент Проверен [iPad] Борн: Трилогия / The Bourne Trilogy [2002, 2004, 2007, Боевик, триллер, приключения, детектив, BDRip, 720p] DUB, Гаврилов, ENG + Rus / Eng sub

в форуме Фильмы для iPod, iPhone, iPad, Размер: 8.05 ГБ, Здоровье: 100%

Гость

0
27|8

204
1

11 май 2015, 01:30

Гость Перейти к последнему сообщению

В этой теме нет новых непрочитанных сообщений. Скачать торрент Проверен Ночной дозор / Night Watch (Тимур Бекмамбетов) [2004, Россия, ужасы, боевик, триллер, фэнтези, BDRip 720p]

в форуме Наше кино (HD Video), Размер: 4.37 ГБ, Здоровье: 100%

Anonymous

0
26|8

62
0

12 апр 2015, 11:04

Anonymous Перейти к последнему сообщению

В этой теме нет новых непрочитанных сообщений. Скачать торрент Проверен [iPad] На крючке / Eagle Eye (Д. Дж. Карузо / D.J. Caruso) [2008 г., США, Германия, боевик, триллер, детектив, BDRip]

в форуме Фильмы для iPod, iPhone, iPad, Размер: 2.39 ГБ, Здоровье: 100%

Anonymous

0
11|4

36
1

11 май 2015, 01:39

Anonymous Перейти к последнему сообщению



Сейчас этот форум просматривают: нет зарегистрированных пользователей и гости: 1


Вы не можете начинать темы
Вы не можете отвечать на сообщения
Вы не можете редактировать свои сообщения
Вы не можете удалять свои сообщения
Вы не можете добавлять вложения

Перейти:  

!ВНИМАНИЕ!
 Ресурс не предоставляет электронные версии произведений, а занимается лишь коллекционированием и каталогизацией ссылок, присылаемых и публикуемых на форуме нашими читателями. Если вы являетесь правообладателем какого-либо представленного материала и не желаете чтобы ссылка на него находилась в нашем каталоге, свяжитесь с нами и мы незамедлительно удалим её. Файлы для обмена на трекере предоставлены пользователями сайта, и администрация не несёт ответственности за их содержание. Просьба не заливать файлы, защищенные авторскими правами, а также файлы нелегального содержания!