На всех торрентах на трекере установлена скидка на скачивание в размере 100 процентов(а).
 Возможность скачивания торрента НЕ зависит от ограничений при низком ратио, низком аплоаде, требуемом ратио или требуемом аплоаде.


Начать новую тему Ответить на тему
Статистика раздачи
Размер: 3.84 ГБ | Добавлен: 18 янв 2014, 18:14 | Скачали: 8
Сидеров: 82  [0 байт/сек]    Личеров: 15  [0 байт/сек]
Пред. тема | След. тема 

Автор
Сообщение

СообщениеДобавлено: 18 янв 2014, 18:14 

Ответить с цитатой 

Жанр: r'n'r, blues, soul
Продолжительность: 00:58:34
Год выпуска: 1989

Описание:
VA - The Legends of Rock-N-Roll - это уникальный концерт 1989 года, в котором одновременно участвуют настоящие легенды рок-н-ролла и блюза, это настоящий нон-стоп, когда звёзды, как в эстафете, передают праздничную палочку следующему участнику.

= Треклист =
=1. James Brown - Papa's Got A Brand New Bag
=2. James Brown - I Feel Good (I Got You)
=3. Bo Diddley - Intro
=4. Bo Diddley - I'm A Man
=5. Ray Charles - Mess Around
=6. Ray Charles - I'm A Fool
=7. Little Richard - Great Gosh A’Mighty
=8. Jerry Lee Lewis - The Wild One (Real Wild Child)
=9. Jerry Lee Lewis - Great Balls Of Fire
10. Jerry Lee Lewis - Whole Lotta Shakin' Goin' On
11. Fats Domino - I'm Ready
12. Fats Domino - Blueberry Hill
13. B.B. King - Let The Good Times Roll
14. B.B. King - How Blue Can You Get
15. All-Stars - All Star Jam

Качество: HDTVRip 1080p
Контейнер: MPEG-4
Видео кодек: H.264
Аудио кодек: AAC
Видео: 1920x1080 (16:9), 25.00 fps, AVC, 8988 Кбит, 0.172 bits/pixel
Аудио: 48.0 KHz, AAC-LC, 2 ch, stereo, ~128 Kbps VBR
Отчёт MediaInfo / BDInfo
Код:
Полное имя                               : G:\DVD\VA-Legends of Rock-N-Roll (1989)\VA-The Legends of Rock-N-Roll.mp4
Формат                                   : MPEG-4
Профиль формата                          : Base Media / Version 2
Идентификатор кодека                     : mp42
Размер файла                             : 3,84 Гбайт
Продолжительность                        : 58 м.
Общий поток                              : 9375 Кбит/сек
Дата кодирования                         : UTC 2013-10-23 09:09:00
Дата пометки                             : UTC 2013-10-23 09:09:00

Видео
Идентификатор                            : 2
Формат                                   : AVC
Формат/Информация                        : Advanced Video Codec
Профиль формата                          : Main@L4.0
Параметр CABAC формата                   : Да
Параметр ReFrames формата                : 2 кадра
Идентификатор кодека                     : avc1
Идентификатор кодека/Информация          : Advanced Video Coding
Продолжительность                        : 58 м.
Вид битрейта                             : Переменный
Битрейт                                  : 8988 Кбит/сек
Максимальный битрейт                     : 9001 Кбит/сек
Ширина                                   : 1920 пикселей
Высота                                   : 1088 пикселей
Высота оригинала                         : 1080 пикселей
Соотношение сторон                       : 16:9
Соотношение сторон в оригинале           : 16:9
Режим частоты кадров                     : Переменный
Частота кадров                           : 25,000 кадров/сек
Частота кадров в оригинале               : 12,500 кадров/сек
Минимальная частота кадров               : 12,500 кадров/сек
Максимальная частота кадров              : 25,000 кадров/сек
Цветовое пространство                    : YUV
Субдискретизация насыщенности            : 4:2:0
Битовая глубина                          : 8 бит
Тип развёртки                            : Прогрессивная
Бит/(Пиксели*Кадры)                      : 0.172
Размер потока                            : 3,68 Гбайт (96%)
Язык                                     : English
Дата кодирования                         : UTC 2013-10-23 09:09:00
Дата пометки                             : UTC 2013-10-23 09:09:00

Аудио
Идентификатор                            : 1
Формат                                   : AAC
Формат/Информация                        : Advanced Audio Codec
Профиль формата                          : LC
Идентификатор кодека                     : 40
Продолжительность                        : 58 м.
Вид битрейта                             : Постоянный
Битрейт                                  : 384 Кбит/сек
Номинальный битрейт                      : 128 Кбит/сек
Каналы                                   : 2 канала
Расположение каналов                     : Front: L R
Частота                                  : 48,0 КГц
Метод сжатия                             : С потерями
Размер потока                            : 161 Мбайт (4%)
Язык                                     : English
Дата кодирования                         : UTC 2013-10-23 09:09:00
Дата пометки                             : UTC 2013-10-23 09:09:00
Скриншоты



Правила, инструкции, FAQ!!!
Торрент  Добавлен [18 янв 2014, 18:14] Скачать торрент Магнет ссылка
Скачать торрент
[ Размер 19.72 КБ / Просмотров 40 ]

Статус  
 
Размер  3.84 ГБ
Приватный: Нет (DHT включён)
.torrent скачан  8
Как залить торрент? | Как скачать Torrent? | Ошибка в торренте? Качайте магнет  
загрузка...


     Отправить личное сообщение
   
Страница 1 из 1
Показать сообщения за:  Поле сортировки  
Начать новую тему Ответить на тему

   Похожие торренты   Автор   Ответы   Просмотры   Последнее сообщение 
В этой теме нет новых непрочитанных сообщений. Скачать торрент Проверен (Rock'n'Roll/Blues/Jazz) Retro Collection (Elvis Presley, Jerry Lee Lewis, Little Richard, Ray Charles)-4 box.set - 1953 - 56 г.г., WAVPack (.wv.cue.log.covers) - lossless

в форуме Classic Rock & Hard Rock, Размер: 793.81 МБ, Здоровье: 100%

Anonymous

0
6|3

37
2

03 сен 2016, 12:57

Anonymous Перейти к последнему сообщению

В этой теме нет новых непрочитанных сообщений. Скачать торрент Проверен (Blues, Rhythm & Blues, Rock & Roll) Fats Domino - Out Of New Orleans (8 CD box) - 1993, FLAC (tracks+.cue), lossless

в форуме Blues (Texas, Chicago, Modern and Others), Размер: 3.28 ГБ, Здоровье: 0%

Anonymous

0
0|0

11
1

15 окт 2016, 19:44

Anonymous Перейти к последнему сообщению

В этой теме нет новых непрочитанных сообщений. Скачать торрент Проверен (Rock'n'Roll / Blues) [LP] [24/192] Fats Domino – Blueberry Hill (Compilation) - 1980, FLAC (image+.cue)

в форуме Зарубежный рок (оцифровки), Размер: 1.17 ГБ, Здоровье: 100%

Anonymous

0
3|1

15
0

27 авг 2016, 08:58

Anonymous Перейти к последнему сообщению

В этой теме нет новых непрочитанных сообщений. Скачать торрент Проверен (Rock'n'Roll) [LP] [16/44.1] Jerry Lee Lewis - Rockin' With Jerry Lee Lewis - 1987, FLAC (tracks)

в форуме Зарубежный рок (оцифровки), Размер: 236.83 МБ, Здоровье: 100%

Anonymous

0
2|0

29
0

24 авг 2016, 14:37

Anonymous Перейти к последнему сообщению

В этой теме нет новых непрочитанных сообщений. Скачать торрент Проверен (Rock & Roll) [LP] [24/192] Jerry Lee Lewis – The Best Of Jerry Lee Lewis - 1979, FLAC (image+.cue)

в форуме Зарубежный рок (оцифровки), Размер: 1.24 ГБ, Здоровье: 100%

Anonymous

0
30|5

150
2

27 авг 2016, 08:22

Anonymous Перейти к последнему сообщению



Сейчас этот форум просматривают: нет зарегистрированных пользователей и гости: 0


Вы не можете начинать темы
Вы не можете отвечать на сообщения
Вы не можете редактировать свои сообщения
Вы не можете удалять свои сообщения
Вы не можете добавлять вложения

Перейти:  
Ресурс не предоставляет электронные версии произведений, а занимается лишь коллекционированием и каталогизацией ссылок, присылаемых и публикуемых на форуме нашими читателями. Если вы являетесь правообладателем какого-либо представленного материала и не желаете чтобы ссылка на него находилась в нашем каталоге, свяжитесь с нами и мы незамедлительно удалим её. Файлы для обмена на трекере предоставлены пользователями сайта, и администрация не несёт ответственности за их содержание. Просьба не заливать файлы, защищенные авторскими правами, а также файлы нелегального содержания!
cron