На всех торрентах на трекере установлена скидка на скачивание в размере 100 процентов(а).
 Возможность скачивания торрента НЕ зависит от ограничений при низком ратио, низком аплоаде, требуемом ратио или требуемом аплоаде.


Начать новую тему Ответить на тему
Статистика раздачи
Размер: 1.47 ГБ | Добавлен: 21 янв 2018, 16:01 | Скачали: 4
Сидеров: 22  [0 байт/сек]    Личеров: 1  [0 байт/сек]
Пред. тема | След. тема 

Автор
Сообщение

СообщениеДобавлено: 21 янв 2018, 16:01 

Ответить с цитатой 

Год выпуска: 2016
Оригинальное название: Dans les forêts de Sibérie
Страна: Франция
Жанр: драма, приключения
Возраст: 16+

Режиссер: Сэфи Неббу

В ролях: Рафаэль Персонас, Евгений Сидихин

Описание: В поисках самого себя Тедди сбегает от надоевшей суеты европейской жизни и решает воссоединиться с природой, отправившись в разгар зимы в маленькую хижину недалеко от озера Байкал. Однажды вечером, заблудившись в снежной буре, он понимает, что вот-вот расстанется с жизнью. Но неожиданно его спасает Алексей, русский парень, много лет скрывающийся в лесах из-за совершенного им преступления…

Продолжительность: 01:39:08
Перевод: Профессиональный многоголосый [iTunes]
Оригинальная дорожка: нет

Релиз от:

Качество видео: BDRip 720p Исходник: Blu-Ray Remux (1080p) Формат: mp4
Видео кодек: MPEG-4 AVC Аудио кодек: AAC
Видео: 1280x690 (1.85:1) at 24.000 fps, AVC at 1 957 kbps avg, 0.092 bit/pixel
Аудио №1 Rus: 48.0 KHz, AAC, 2 ch, 160.0 Kbps
Субтитры: нет
Навигация по главам: есть
Размер:

avs [info]: 1280x690p 1:1 @ 24/1 fps (cfr)
x264 [info]: using SAR=1/1
x264 [info]: using cpu capabilities: MMX2 SSE2Fast SSSE3 Cache64
x264 [info]: profile High, level 4.1
x264 [info]: frame I:921 Avg QP:14.19 size:108660
x264 [info]: frame P:28512 Avg QP:17.59 size: 24369
x264 [info]: frame B:113334 Avg QP:19.95 size: 5828
x264 [info]: consecutive B-frames: 1.8% 1.9% 5.5% 8.5% 13.6% 56.7% 12.0%
x264 [info]: mb I I16..4: 10.3% 69.7% 20.0%
x264 [info]: mb P I16..4: 2.2% 7.9% 0.9% P16..4: 47.9% 13.7% 14.2% 0.2% 0.1% skip:12.8%
x264 [info]: mb B I16..4: 0.1% 0.4% 0.1% B16..8: 38.7% 4.7% 0.7% direct: 3.3% skip:51.9% L0:47.2% L1:48.9% BI: 3.9%
x264 [info]: 8x8 transform intra:71.0% inter:65.2%
x264 [info]: coded y,uvDC,uvAC intra: 54.3% 49.8% 21.9% inter: 13.8% 11.3% 0.4%
x264 [info]: i16 v,h,dc,p: 46% 17% 8% 30%
x264 [info]: i8 v,h,dc,ddl,ddr,vr,hd,vl,hu: 19% 14% 30% 5% 7% 7% 7% 6% 6%
x264 [info]: i4 v,h,dc,ddl,ddr,vr,hd,vl,hu: 31% 16% 16% 5% 8% 7% 7% 5% 5%
x264 [info]: i8c dc,h,v,p: 63% 17% 15% 5%
x264 [info]: Weighted P-Frames: Y:5.5% UV:2.4%
x264 [info]: ref P L0: 47.9% 9.3% 16.2% 7.0% 5.7% 4.7% 4.2% 2.5% 2.4% 0.2% 0.0%
x264 [info]: ref B L0: 71.8% 11.3% 6.8% 3.3% 2.7% 2.3% 1.4% 0.4%
x264 [info]: ref B L1: 93.1% 6.9%
x264 [info]: kb/s:1957.35
encoded 142767 frames, 3.76 fps, 1957.35 kb/s

General
Complete name : ...V-lesax-Sibiri-2016_KinoGadget.mp4
Format : MPEG-4
Format profile : Base Media
Codec ID : isom (isom)
File size : 1.47 GiB
Duration : 1 h 39 min
Overall bit rate mode : Variable
Overall bit rate : 2 125 kb/s
Movie name : В лесах Сибири | KinoGadget
Performer : Сэфи Неббу
Director : Сэфи Неббу
Actor : Рафаэль Персонас / Евгений Сидихин
Screenplay by : Сильвен Тессон / Сэфи Неббу / Давид Эльхоффен
Producer : Филипп Боэффард / Христоф Россигнон / Серж Хаят
Genre : Adventure, Drama
ContentType : Short Film
Recorded date : 2016
Encoded date : UTC 2018-01-21 08:22:03
Tagged date : UTC 2018-01-21 08:54:24
Cover : Yes
ContentRating : mpaa|PG-13|300|
LongDeion : В поисках самого себя Тедди сбегает от надоевшей суеты европейской жизни и решает воссоединиться с природой, отправившись в разгар зимы в маленькую хижину недалеко от озера Байкал. Однажды вечером, заблудившись в снежной буре, он понимает, что вот-вот расстанется с жизнью. Но неожиданно его спасает Алексей, русский парень, много лет скрывающийся в лесах из-за совершенного им преступления…
HDVideo : Yes

Video
ID : 1
Format : AVC
Format/Info : Advanced Video Codec
Format profile : High@L4.1
Format settings : CABAC / 9 Ref Frames
Format settings, CABAC : Yes
Format settings, ReFrames : 9 frames
Codec ID : avc1
Codec ID/Info : Advanced Video Coding
Duration : 1 h 39 min
Bit rate : 1 957 kb/s
Maximum bit rate : 18.2 Mb/s
Width : 1 280 pixels
Height : 690 pixels
Display aspect ratio : 1.85:1
Frame rate mode : Constant
Frame rate : 24.000 FPS
Color space : YUV
Chroma subsampling : 4:2:0
Bit depth : 8 bits
Scan type : Progressive
Bits/(Pixel*Frame) : 0.092
Stream size : 1.36 GiB (92%)
Writing library : x264 core 152 r2851 ba24899
Encoding settings : cabac=1 / ref=9 / deblock=1:-2:-1 / analyse=0x3:0x133 / me=umh / subme=7 / psy=1 / psy_rd=1.00:0.00 / mixed_ref=1 / me_range=32 / chroma_me=1 / trellis=2 / 8x8dct=1 / cqm=0 / deadzone=21,11 / fast_pskip=0 / chroma_qp_offset=-2 / threads=3 / lookahead_threads=1 / sliced_threads=0 / nr=0 / decimate=1 / interlaced=0 / bluray_compat=0 / constrained_intra=0 / bframes=6 / b_pyramid=2 / b_adapt=2 / b_bias=0 / direct=1 / weightb=1 / open_gop=0 / weightp=2 / keyint=250 / keyint_min=25 / scenecut=40 / intra_refresh=0 / rc_lookahead=60 / rc=crf / mbtree=1 / crf=19.0 / qcomp=0.60 / qpmin=0 / qpmax=69 / qpstep=4 / vbv_maxrate=62500 / vbv_bufsize=78125 / crf_max=0.0 / nal_hrd=none / filler=0 / ip_ratio=1.40 / aq=1:1.00
Encoded date : UTC 2018-01-21 06:35:53
Tagged date : UTC 2018-01-21 08:22:28

Audio
ID : 2
Format : AAC
Format/Info : Advanced Audio Codec
Format profile : LC
Codec ID : mp4a-40-2
Duration : 1 h 39 min
Bit rate mode : Variable
Bit rate : 160 kb/s
Maximum bit rate : 165 kb/s
Channel(s) : 2 channels
Channel positions : Front: L R
Sampling rate : 48.0 kHz
Frame rate : 46.875 FPS (1024 SPF)
Compression mode : Lossy
Stream size : 113 MiB (8%)
Language : Russian
Encoded date : UTC 2018-01-21 06:45:06
Tagged date : UTC 2018-01-21 08:22:28

Menu
00:00:00.000 : 00:00:00.000
00:07:21.458 : 00:07:21.458
00:14:41.167 : 00:14:41.167
00:25:16.667 : 00:25:16.667
00:31:13.667 : 00:31:13.667
00:40:54.875 : 00:40:54.875
00:48:48.500 : 00:48:48.500
00:59:10.000 : 00:59:10.000
01:03:46.667 : 01:03:46.667
01:10:14.667 : 01:10:14.667
01:19:49.042 : 01:19:49.042
01:28:07.708 : 01:28:07.708
01:35:41.500 : 01:35:41.500



Данный рип предназначен для просмотра на мобильных гаджетах с поддержкой формата mp4
загрузка...
Правила, инструкции, FAQ!!!
Торрент  Добавлен [21 янв 2018, 16:01] Скачать торрент Магнет ссылка
Скачать торрент
[ Размер 15.71 КБ / Просмотров 148 ]

Статус
Проверен 
 
Размер  1.47 ГБ
Приватный: Нет (DHT включён)
.torrent скачан  4
Как залить торрент? | Как скачать Torrent? | Ошибка в торренте? Качайте магнет  


     Отправить личное сообщение
   
Страница 1 из 1
Показать сообщения за:  Поле сортировки  
Начать новую тему Ответить на тему

   Похожие торренты   Автор   Ответы   Просмотры   Последнее сообщение 
В этой теме нет новых непрочитанных сообщений. Скачать торрент Проверен В лесах Сибири / Dans les forêts de Sibérie (2016) HDRip | iTunes

в форуме Приключения, Размер: 1.46 ГБ, Здоровье: 100%

Гость

0
6|1

94
3

21 янв 2018, 15:58

Гость Перейти к последнему сообщению

В этой теме нет новых непрочитанных сообщений. Скачать торрент Проверен В лесах Сибири / Dans les forêts de Sibérie (Сэфи Неббу / Safy Nebbou) [2016, Франция, Приключения, BDRip] MVO (iTunes)

в форуме Фильмы 2016-2017, Размер: 1.46 ГБ, Здоровье: 0%

Anonymous

0
0|0

7
0

03 фев 2018, 20:06

Anonymous Перейти к последнему сообщению

В этой теме нет новых непрочитанных сообщений. Скачать торрент Проверен Терминатор: Генезис / Terminator: Genisys (2015) BDRip 720p | iPad | iTunes

в форуме Фильмы для iPod, iPhone, iPad, Размер: 2.46 ГБ, Здоровье: 100%

Гость

0
927|69

785
144

17 окт 2015, 18:33

Гость Перейти к последнему сообщению

В этой теме нет новых непрочитанных сообщений. Закрыто правообладателем Лев / Lion (2016) BDRip 720p | iTunes Данный торрент является блокированным, причина: Закрыто правообладателем

в форуме 720p | 1080p, Размер: 5.05 ГБ, Здоровье: 100%

Гость

0
206|62

112
289

01 апр 2017, 19:57

Гость Перейти к последнему сообщению

В этой теме нет новых непрочитанных сообщений. Скачать торрент Проверен Преступник / Criminal (2016) BDRip 720p | iTunes

в форуме 720p | 1080p, Размер: 5.7 ГБ, Здоровье: 100%

Гость

0
258|146

324
166

17 авг 2016, 21:56

Гость Перейти к последнему сообщению



Сейчас этот форум просматривают: нет зарегистрированных пользователей и гости: 0


Вы не можете начинать темы
Вы не можете отвечать на сообщения
Вы не можете редактировать свои сообщения
Вы не можете удалять свои сообщения
Вы не можете добавлять вложения

Перейти:  
Ресурс не предоставляет электронные версии произведений, а занимается лишь коллекционированием и каталогизацией ссылок, присылаемых и публикуемых на форуме нашими читателями. Если вы являетесь правообладателем какого-либо представленного материала и не желаете чтобы ссылка на него находилась в нашем каталоге, свяжитесь с нами и мы незамедлительно удалим её. Файлы для обмена на трекере предоставлены пользователями сайта, и администрация не несёт ответственности за их содержание. Просьба не заливать файлы, защищенные авторскими правами, а также файлы нелегального содержания!
cron