На всех торрентах на трекере установлена скидка на скачивание в размере 100 процентов(а).
 Возможность скачивания торрента НЕ зависит от ограничений при низком ратио, низком аплоаде, требуемом ратио или требуемом аплоаде.


Начать новую тему Ответить на тему
Статистика раздачи
Размер: 5.62 ГБ | Добавлен: 27 дек 2013, 09:23 | Скачали: 0
Сидеров: 12  [0 байт/сек]    Личеров: 2  [0 байт/сек]
Пред. тема | След. тема 

Автор
Сообщение

СообщениеДобавлено: 27 дек 2013, 09:23 

Ответить с цитатой 

Южный парк / South Park (2013) WEB-DL [H.264/720p-LQ] (17 сезон, серии 1-10 из 10) (Обновляемая)

Русское название: Южный парк
Оригинальное название: South Park
Год выпуска: 2013
Жанр: Мультфильм, Комедия
Язык: Русский
Описание:
Странноватые истории из жизни нескольких третьеклашек из маленького городка Саус Парк в штате Колорадо.
Это комедия с элементами гротеска, фарса, пародии, обильно сдобренная музыкой и той самой плохо определяемой словами чертовщиной...

Режиссер: Трей Паркер / Trey Parker, Мэтт Стоун / Matt Stone
Персонажи: Эрик Картман, Стэнли Марш, Кайл Брофловски, Кенни Маккормик

Продолжительность: 10x ~00:22:00
Перевод: 2х Двухголосый закадровый, Многоголосый, Одноголосый закадровый
Внимание! Присутствует ненормативная лексика!
Возрастное ограничение: 18+


Язык субтитров: Русский
Вид субтитров: Вшитые (отключаемые)

Скачать семпл

Видеокодек: MPEG-4 AVC/H.264
Битрейт видео: ~2 480 Kbps
Размер кадра: 1280x718
Качество видео: WEB-DL
01: AC3, 2 ch 192 Кбит/с - русский (DVO Paramount Comedy)
02: AC3, 2 ch 256 Кбит/с - русский (MVO VO-Production) С 1-3 эпизод
03: AC3, 2 ch 192 Кбит/с - русский (DVO Кубик в Кубе)
04: AC3, 2 ch 192 Кбит/с - русский (VO Nice-Media)
Благодарим ZIP_sq за дорожки DVO Paramount Comedy
Если копируете релиз на другие ресурсы или берете дорожки из него - указывайте автора работы!
DVO Paramount Comedy
В некоторых дорожках не было заставки, которая идет в начале - добавил с оригинальной дорожки.
Нормализация громкости.
Синхронизирована.
MVO VO-Production
Убрана заставка вначале.
Нормализация громкости.
Синхронизирована.
DVO Кубик в Кубе
Нормализация громкости.
Синхронизирована.
VO Nice-Media (L0cDoG)
Исходная дорожка 5.1 ch 384 кб\с была смикширована в Downmix multichannel to Dolby Pro Logic II
Из оригинальной дорожки были сделаны вставки в нужные места, где было нужно - добавлена тишина, а где нет - убрана.
Нормализация громкости.
Синхронизирована.
Объяснение:
DPL II - микширование в стерео по схеме Dolby Pro Logic II (получаем псевдо 5.0 (3/1), т.к. при воспроизведении из стерео выделяются центральный, тыловой стерео и LFE каналы).
SP_S17E01_Ступай, правительство присмотрит за тобой / Let Go, Let Gov
SP_S17E02_Информационное кровавое порно / Informative Murder Porn
SP_S17E03_Война Миров Зиммерман / World War Zimmerman
SP_S17E04_Дети Готы 3: Рассвет позеров / Goth Kids 3: Dawn of the Posers
SP_S17E05_Приручая киску / Taming Strange
SP_S17E06_Рыжая корова / Ginger Cow
SP_S17E07_Черная пятница / Black Friday
SP_S17E08_Песнь зада и пламени / A Song of Ass and Fire
SP_S17E09_Сиськи и драконы / Titties and Dragons
SP_S17E10_Хоббит / The Hobbit
General
Complete name : SP_S17E01_WEB-DL_720p_Paramount Comedy_VO-Production_Kubik v Kube_Nice-Media.mkv
Format : Matroska
Format version : Version 2
File size : 534 MiB
Duration : 22mn 10s
Overall bit rate : 3 371 Kbps
Movie name : SP_S17E01_Let Go Let Gov
Encoded date : UTC 2013-11-03 18:36:14
Writing application : mkvmerge v4.0.0 ('The Stars were mine') сборка от Jun 6 2010 16:18:42
Writing library : libebml v1.0.0 + libmatroska v1.0.0

Video
ID : 1
Format : AVC
Format/Info : Advanced Video Codec
Format profile :
Format settings, CABAC : No
Format settings, ReFrames : 2 frames
Codec ID : V_MPEG4/ISO/AVC
Duration : 22mn 10s
Bit rate : 2 471 Kbps
Width : 1 280 pixels
Height : 718 pixels
Display aspect ratio : 16:9
Frame rate : 23.976 fps
Color space : YUV
Chroma subsampling : 4:2:0
Bit depth : 8 bits
Scan type : Progressive
Bits/(Pixel*Frame) : 0.112
Stream size : 392 MiB (73%)
Language : English
Color primaries : BT.709-5, BT.1361, IEC 61966-2-4, SMPTE RP177
Transfer characteristics : BT.709-5, BT.1361
Matrix coefficients : BT.709-5, BT.1361, IEC 61966-2-4 709, SMPTE RP177

Audio #1
ID : 2
Format : AC-3
Format/Info : Audio Coding 3
Mode extension : CM (complete main)
Codec ID : A_AC3
Duration : 22mn 10s
Bit rate mode : Constant
Bit rate : 192 Kbps
Channel(s) : 2 channels
Channel positions : Front: L R
Sampling rate : 48.0 KHz
Bit depth : 16 bits
Compression mode : Lossy
Stream size : 30.4 MiB (6%)
Title : DVO Paramount Comedy
Language : Russian

Audio #2
ID : 3
Format : AC-3
Format/Info : Audio Coding 3
Mode extension : CM (complete main)
Codec ID : A_AC3
Duration : 22mn 10s
Bit rate mode : Constant
Bit rate : 256 Kbps
Channel(s) : 2 channels
Channel positions : Front: L R
Sampling rate : 48.0 KHz
Bit depth : 16 bits
Compression mode : Lossy
Stream size : 40.6 MiB (8%)
Title : MVO VO-Production
Language : Russian

Audio #3
ID : 4
Format : AC-3
Format/Info : Audio Coding 3
Mode extension : CM (complete main)
Codec ID : A_AC3
Duration : 22mn 10s
Bit rate mode : Constant
Bit rate : 192 Kbps
Channel(s) : 2 channels
Channel positions : Front: L R
Sampling rate : 48.0 KHz
Bit depth : 16 bits
Compression mode : Lossy
Stream size : 30.4 MiB (6%)
Title : DVO Кубик в Кубе
Language : Russian

Audio #4
ID : 5
Format : AC-3
Format/Info : Audio Coding 3
Mode extension : CM (complete main)
Codec ID : A_AC3
Duration : 22mn 10s
Bit rate mode : Constant
Bit rate : 192 Kbps
Channel(s) : 2 channels
Channel positions : Front: L R
Sampling rate : 48.0 KHz
Bit depth : 16 bits
Compression mode : Lossy
Stream size : 30.4 MiB (6%)
Title : VO Nice-Media
Language : Russian

Text
ID : 6
Format : UTF-8
Codec ID : S_TEXT/UTF8
Codec ID/Info : UTF-8 Plain Text
Title : yazzzzzva
Language : Russian
Скриншоты:

загрузка...
Правила, инструкции, FAQ!!!
Торрент  Добавлен [27 дек 2013, 09:23] Скачать торрент Магнет ссылка
Скачать торрент
[ Размер 29.89 КБ / Просмотров 19 ]

Статус  
 
Размер  5.62 ГБ
Приватный: Нет (DHT включён)
.torrent скачан  0
Как залить торрент? | Как скачать Torrent? | Ошибка в торренте? Качайте магнет  


     Отправить личное сообщение
   
Страница 1 из 1
Показать сообщения за:  Поле сортировки  
Начать новую тему Ответить на тему

   Похожие торренты   Автор   Ответы   Просмотры   Последнее сообщение 
В этой теме нет новых непрочитанных сообщений. Скачать торрент Проверен [MULT] Южный Парк / South Park (С 1 по 15 сезон) (Трей Паркер, Эрик Стоф, Мэтт Стоун) [1997-2011, мультфильм, комедия, DVDRip/HDTVRip/WEB-DLRip] [AVI, 320x] (MTV, Кубик в Кубе)

в форуме Видео для смартфонов и КПК, Размер: 16.39 ГБ, Здоровье: 100%

Anonymous

0
19|5

155
0

02 авг 2014, 17:04

Anonymous Перейти к последнему сообщению

В этой теме нет новых непрочитанных сообщений. Скачать торрент Проверен [MP4] Южный Парк: Большой, длинный, необрезанный / South Park: Bigger Longer & Uncut (1999) DVDRip [320x176, Гоблин]

в форуме Видео для смартфонов и КПК, Размер: 197.22 МБ, Здоровье: 2%

Anonymous

0
1|40

139
0

25 окт 2014, 23:18

Anonymous Перейти к последнему сообщению

В этой теме нет новых непрочитанных сообщений. Скачать торрент Проверен [MULT] Южный парк / South Park - 1-15 сезоны (Трей Паркер, Мэтт Стоун) [1997-2011 г., Комедия, мультсериал, DVDRip / WEB-DL] [MP4, 640x]

в форуме Видео для смартфонов и КПК, Размер: 30.85 ГБ, Здоровье: 100%

Anonymous

0
45|15

115
0

02 авг 2014, 16:52

Anonymous Перейти к последнему сообщению

В этой теме нет новых непрочитанных сообщений. Скачать торрент Проверен Покойо / Pocoyo (2005-2009) SATRip (1 сезон: 1-52 серии, 2 сезон: 1- 52 серии из 104) [Обновляемая]

в форуме Развивающее Видео для детей, Размер: 9.33 ГБ, Здоровье: 100%

Гость

0
295|173

1076
19

01 дек 2015, 00:15

Гость Перейти к последнему сообщению

В этой теме нет новых непрочитанных сообщений. Скачать торрент Менталист (The Mentalist) / 6-й сезон, серии 1-17 (22) (Baibako) (2013-2014) [mp4 | 720x400] <WEB-DLRip> (Обновляемая)

в форуме Видео для смартфонов и КПК, Размер: 9.67 ГБ, Здоровье: ???%

Anonymous

0
0|11

527
0

21 апр 2014, 22:27

Anonymous Перейти к последнему сообщению



Сейчас этот форум просматривают: нет зарегистрированных пользователей и гости: 0


Вы не можете начинать темы
Вы не можете отвечать на сообщения
Вы не можете редактировать свои сообщения
Вы не можете удалять свои сообщения
Вы не можете добавлять вложения

Перейти:  
Ресурс не предоставляет электронные версии произведений, а занимается лишь коллекционированием и каталогизацией ссылок, присылаемых и публикуемых на форуме нашими читателями. Если вы являетесь правообладателем какого-либо представленного материала и не желаете чтобы ссылка на него находилась в нашем каталоге, свяжитесь с нами и мы незамедлительно удалим её. Файлы для обмена на трекере предоставлены пользователями сайта, и администрация не несёт ответственности за их содержание. Просьба не заливать файлы, защищенные авторскими правами, а также файлы нелегального содержания!
cron