На всех торрентах на трекере установлена скидка на скачивание в размере 100 процентов(а).
 Возможность скачивания торрента НЕ зависит от ограничений при низком ратио, низком аплоаде, требуемом ратио или требуемом аплоаде.


Начать новую тему Ответить на тему
Статистика раздачи
Размер: 2.18 ГБ | Добавлен: 11 июн 2018, 09:30 | Скачали: 1
Сидеров: 38  [9 байт/сек]    Личеров: 11  [0 байт/сек]
Пред. тема | След. тема 

Автор
Сообщение

СообщениеДобавлено: 11 июн 2018, 09:30 

Ответить с цитатой 

Удача Логана / Logan Lucky

Год выпуска: 2017
Страна: США / Free Association, Trans-Radial Pictures
Жанр: комедия, криминал
Продолжительность: 01:59:03
Перевод: Профессиональный (дублированный)
Субтитры: английские (полные, полные SDH)
Оригинальная аудиодорожка: английский
Режиссер: Стивен Содерберг / Steven Soderbergh
В ролях: Ченнинг Татум, Адам Драйвер, Дэниэл Крэйг, Райли Кио, Кэти Холмс, Джек Куэйд, Брин Глисон, Сет МакФарлейн, Себастьян Стэн, Хилари Суэнк, Фаррах Маккензи, Джим О’Хейр.
Описание: Перед вами очередной захватывающий кино-шедевр от создателя трилогии «Друзей Оушена» Стивена Содерберга. Главным фигурантом фильма становится молодой Джимми Логан, совсем недавно потерявший работу, но сидеть без дела он не собирается, Логан вынашивает в голове дерзкий план быстрого обогащения, так как для начала "новой жизни" деньги очень нужны. На кануне предстоящего кубка «Coca-Cola 600» очень популярной ежегодной гонки NASCAR он с родным братом Клайдом и сестрой Мелли, разрабатывают блестящий план ограбления банковского хранилища в Северной Каролине. В подельники они берут опытного Джо Бэнга, эксперта по взломах и охранных системах банков. Но есть одно но, сначала придется вытащить Бэнга из тюряги.
Рейтинг
kinopoisk.ru
6.744 (25 452)
imdb.com 7.10 (82 870)
Качество видео: BDRip (исходник: Udacha.Logana.2017.BDRemux.1080p.NNMClub)
Формат видео: AVI | Sample
Видео: 720x304 (2.37:1), 23.976 fps, XviD build 73 ~1772 kbps avg, 0.34 bit/pixel
Аудио 1: 48 kHz, AC3 Dolby Digital, 3/2 (L,C,R,l,r) + LFE ch, ~384.00 kbps avg | RUS
Аудио 2: 48 kHz, AC3 Dolby Digital, 3/2 (L,C,R,l,r) + LFE ch, ~448.00 kbps avg | ENG
Формат : AVI
Формат/Информация : Audio Video Interleave
Профиль формата : OpenDML
Размер файла : 2,18 Гбайт
Продолжительность : 1 ч. 59 м.
Общий поток : 2621 Кбит/сек
Название фильма : Удача Логана / Logan Lucky / 2017
Программа кодирования : VirtualDubMod 1.5.10.2 (build 2540/release)
Библиотека кодирования : VirtualDubMod build 2540/release
Примечание : BDRip by Seven
Видео
Идентификатор : 0
Формат : MPEG-4 Visual
Профиль формата : Advanced Simple@L5
Настройки формата : BVOP1 / Custom Matrix
Параметр BVOP формата : 1
Параметр QPel формата : Нет
Параметр GMC формата : Без точки перехода
Параметр матрицы формата : Выборочная
Идентификатор кодека : XVID
Идентификатор кодека/Подсказка : XviD
Продолжительность : 1 ч. 59 м.
Битрейт : 1772 Кбит/сек
Ширина : 720 пикселей
Высота : 304 пикселя
Соотношение сторон : 2,35:1
Частота кадров : 23,976 (24000/1001) кадра/сек
Цветовое пространство : YUV
Субдискретизация насыщенности : 4:2:0
Битовая глубина : 8 бит
Тип развёртки : Прогрессивная
Метод сжатия : С потерями
Бит/(Пиксели*Кадры) : 0.338
Размер потока : 1,47 Гбайт (68%)
Библиотека кодирования : XviD 73
Аудио #1
Идентификатор : 1
Формат : AC-3
Формат/Информация : Audio Coding 3
Идентификатор кодека : 2000
Продолжительность : 1 ч. 59 м.
Вид битрейта : Постоянный
Битрейт : 384 Кбит/сек
Каналы : 6 каналов
Расположение каналов : Front: L C R, Side: L R, LFE
Частота : 48,0 КГц
Частота кадров : 31,250 кадров/сек (1536 SPF)
Битовая глубина : 16 бит
Метод сжатия : С потерями
Размер потока : 327 Мбайт (15%)
Выравнивание : Разделение по промежуткам
Продолжительность промежутка : 42 мс. (1,00 видеокадр)
Время предзагрузки промежутка : 500 мс.
ServiceKind/String : Complete Main
Аудио #2
Идентификатор : 2
Формат : AC-3
Формат/Информация : Audio Coding 3
Идентификатор кодека : 2000
Продолжительность : 1 ч. 59 м.
Вид битрейта : Постоянный
Битрейт : 448 Кбит/сек
Каналы : 6 каналов
Расположение каналов : Front: L C R, Side: L R, LFE
Частота : 48,0 КГц
Частота кадров : 31,250 кадров/сек (1536 SPF)
Битовая глубина : 16 бит
Метод сжатия : С потерями
Размер потока : 381 Мбайт (17%)
Выравнивание : Разделение по промежуткам
Продолжительность промежутка : 42 мс. (1,00 видеокадр)
Время предзагрузки промежутка : 500 мс.
ServiceKind/String : Complete Main
Правила, инструкции, FAQ!!!
Торрент  Добавлен [11 июн 2018, 09:30] Скачать торрент Магнет ссылка
Скачать торрент
[ Размер 11.57 КБ / Просмотров 15 ]

Статус
Проверен 
 
Размер  2.18 ГБ
Приватный: Нет (DHT включён)
.torrent скачан  1
Как залить торрент? | Как скачать Torrent? | Ошибка в торренте? Качайте магнет  


     Отправить личное сообщение
   
Страница 1 из 1
Показать сообщения за:  Поле сортировки  
Начать новую тему Ответить на тему

   Похожие торренты   Автор   Ответы   Просмотры   Последнее сообщение 
В этой теме нет новых непрочитанных сообщений. Скачать торрент Проверен Удача Логана / Logan Lucky (Стивен Содерберг / Steven Soderbergh) [2017, США, комедия, криминал, BDRip-AVC] Dub (iTunes) + Original Eng + Sub Eng

в форуме Фильмы 2016-2017, Размер: 2.27 ГБ, Здоровье: 100%

Anonymous

0
35|11

10
0

03 фев 2018, 21:15

Anonymous Перейти к последнему сообщению

В этой теме нет новых непрочитанных сообщений. Скачать торрент Проверен [iPad] Удача Логана / Logan Lucky (Стивен Содерберг / Steven Soderbergh ) [2017, США, Комедия, криминал, BDRip, SD (576p)] DUB + Original + sub (eng)

в форуме Фильмы для iPod, iPhone, iPad, Размер: 2.04 ГБ, Здоровье: 100%

Anonymous

0
87|16

309
17

24 дек 2017, 23:13

Anonymous Перейти к последнему сообщению

В этой теме нет новых непрочитанных сообщений. Скачать торрент Проверен Удача Логана / Logan Lucky (Стивен Содерберг / Steven Soderbergh) [2017, США, комедия, криминал, BDRip] Dub

в форуме Фильмы 2016-2017, Размер: 1.46 ГБ, Здоровье: 0%

Anonymous

0
0|0

9
0

03 фев 2018, 20:39

Anonymous Перейти к последнему сообщению

В этой теме нет новых непрочитанных сообщений. Скачать торрент Проверен Удача Логана / Logan Lucky (Стивен Содерберг / Steven Soderbergh) [2017, США, комедия, криминал, BDRip-AVC] Dub

в форуме Фильмы 2016-2017, Размер: 1.46 ГБ, Здоровье: 0%

Anonymous

0
0|0

6
0

03 фев 2018, 20:43

Anonymous Перейти к последнему сообщению

В этой теме нет новых непрочитанных сообщений. Скачать торрент 12 друзей Оушена / Ocean's Twelve (Стивен Содерберг / Steven Soderbergh) [2004 г., триллер, комедия, криминал, BDRip-AVC] Dub

в форуме Триллеры, Размер: 3.45 ГБ, Здоровье: 100%

Anonymous

0
85|29

121
0

29 апр 2014, 13:56

Anonymous Перейти к последнему сообщению



Сейчас этот форум просматривают: нет зарегистрированных пользователей и гости: 0


Вы не можете начинать темы
Вы не можете отвечать на сообщения
Вы не можете редактировать свои сообщения
Вы не можете удалять свои сообщения
Вы не можете добавлять вложения

Перейти:  
Ресурс не предоставляет электронные версии произведений, а занимается лишь коллекционированием и каталогизацией ссылок, присылаемых и публикуемых на форуме нашими читателями. Если вы являетесь правообладателем какого-либо представленного материала и не желаете чтобы ссылка на него находилась в нашем каталоге, свяжитесь с нами и мы незамедлительно удалим её. Файлы для обмена на трекере предоставлены пользователями сайта, и администрация не несёт ответственности за их содержание. Просьба не заливать файлы, защищенные авторскими правами, а также файлы нелегального содержания!
cron