На всех торрентах на трекере установлена скидка на скачивание в размере 100 процентов(а).
 Возможность скачивания торрента НЕ зависит от ограничений при низком ратио, низком аплоаде, требуемом ратио или требуемом аплоаде.


Начать новую тему Ответить на тему
Статистика раздачи
Размер: 2.06 ГБ | Добавлен: 08 мар 2018, 09:23 | Скачали: 10
Сидеров: 665  [0 байт/сек]    Личеров: 185  [0 байт/сек]
Пред. тема | След. тема 

Автор
Сообщение

СообщениеДобавлено: 08 мар 2018, 09:23 

Ответить с цитатой 

Убийство в Восточном экспрессе / Murder on the Orient Express

«Под подозрением каждый»
6.742 / 10 6.60 / 10
Год выпуска: 2017
Страна: США, Великобритания, Мальта, Франция, Канада
Жанр: Драма, криминал, детектив
Продолжительность: 01:53:55
Перевод: Дублированный (iTunes)
Оригинальная аудиодорожка: Есть
Cубтитры: Русские форсированные, Украинские форсированные, Русские, Английские, Украинские
Режиссёр: Кеннет Брана
Сценарий: Майкл Грин, Агата Кристи
Продюсер: Уинстон Аццопарди, Кеннет Брана, Марк Гордон
Оператор: Харис Замбарлукос
Композитор: Патрик Дойл
Художник: Джим Клэй, Эндрю Эклэнд-Сноу, Уилл Кубро
Монтаж: Мик Одсли
В ролях: Кеннет Брана, Пенелопа Крус, Уиллем Дефо, Джуди Денч, Джонни Депп, Джош Гад, Дерек Джекоби, Лесли Одом мл., Мишель Пфайффер, Дэйзи Ридли
Бюджет: $55 000 000
Сборы в США: $102 800 191
Сборы в мире: + $247 401 509 = $350 201 700
Сборы в России: $16 668 164
Мировая премьера: 3 ноября 2017
Премьера (РФ): 9 ноября 2017, «Двадцатый Век Фокс СНГ»
Цифровой релиз: 23 февраля 2018, «Двадцатый Век Фокс СНГ»
Описание: Путешествие на одном из самых роскошных поездов Европы неожиданно превращается в одну из самых стильных и захватывающих загадок в истории. Фильм рассказывает историю тринадцати пассажиров поезда, каждый из которых находится под подозрением. И только сыщик должен как можно быстрее разгадать головоломку, прежде чем преступник нанесет новый удар.
Качество исходника: Blu-Ray (BlueBird)
Качество: BDRip
Тип: SD (576p)
Контейнер: M4V
Видео: H.264, 1024x432, 2.40:1, 2 200 Kbps, 23.976 (24000/1001) fps
Аудио 1: Русский/Дублированный (iTunes), AAC / 2.0 / 128 Kbps / 48.0 KHz
Аудио 2: Английский/Оригинальная дорожка , AAC / 2.0 / 128 Kbps / 48.0 KHz
Аудио 3: Украинский/Дублированный (iTunes), AAC / 2.0 / 128 Kbps / 48.0 KHz
Субтитры 1: Русские форсированные
Субтитры 2: Украинские форсированные
Субтитры 3: Русские полные
Субтитры 4: Английские полные
Субтитры 5: Украинские полные


Код:
Код:
Sort Name: Murder on the Orient Express
XID: Apple:vendor_id:2017-817969
contentID: 1297835448
Copyright: © 2017 Twentieth Century Fox Film Corporation. All rights reserved.
Screenwriters: Майкл Грин, Агата Кристи
Producers: Уинстон Аццопарди, Кеннет Брана, Марк Гордон
Director: Кеннет Брана
Cast: Кеннет Брана, Пенелопа Крус, Уиллем Дефо, Джуди Денч, Джонни Депп, Джош Гад, Дерек Джекоби, Лесли Одом мл., Мишель Пфайффер, Дэйзи Ридли
Studio: 20th Century Fox
Rating: 0
Long Description: Путешествие на одном из самых роскошных поездов Европы неожиданно превращается в одну из самых стильных и захватывающих загадок в истории. Фильм рассказывает историю тринадцати пассажиров поезда, каждый из которых находится под подозрением. И только сыщик должен как можно быстрее разгадать головоломку, прежде чем преступник нанесет новый удар.
Description: Путешествие на одном из самых роскошных поездов Европы неожиданно превращается в одну из самых стильных и захватывающих загадок в истории. Фильм рассказывает историю тринадцати пассажиров поезда, каждый из которых находится под подозрением. И только сыщик должен как можно быстрее разгадать головоломку, прежде чем преступник нанесет новый удар.
Release Date: 2017-11-03T08:00:00Z
Genre: Drama
Artist: Kenneth Branagh
Name: Murder on the Orient Express

Код:
Код:
General
Complete name                            : /Users/imac/HandBrake/Murder.on.the.Orient.Express.(SD).(pk).m4v
Format                                   : MPEG-4
Codec ID                                 : M4V  (M4V /M4A /mp42/isom)
File size                                : 2.06 GiB
Duration                                 : 1h 53mn
Overall bit rate mode                    : Variable
Overall bit rate                         : 2 586 Kbps
Movie name                               : Murder on the Orient Express
Performer                                : Kenneth Branagh
Director                                 : Кеннет Брана
Actor                                    : Кеннет Брана / Пенелопа Крус / Уиллем Дефо / Джуди Денч / Джонни Депп / Джош Гад / Дерек Джекоби / Лесли Одом мл. / Мишель Пфайффер / Дэйзи Ридли
Screenplay by                            : Майкл Грин / Агата Кристи
Producer                                 : Уинстон Аццопарди / Кеннет Брана / Марк Гордон
Production studio                        : 20th Century Fox
Genre                                    : Drama
ContentType                              : Short Film
Description                              : Путешествие на одном из самых роскошных поездов Европы неожиданно превращается в одну из самых стильных и захватывающих загадок в истории. Фильм рассказывает историю тринадцати пассажиров поезда, каждый из которых находится под подозрением. И только сыщик должен как можно быстрее разгадать головоломку, прежде чем преступник нанесет новый удар.
Recorded date                            : UTC 2017-11-03 08:00:00
Encoded date                             : UTC 2018-02-26 15:51:54
Tagged date                              : UTC 2018-02-26 15:56:18
Copyright                                : © 2017 Twentieth Century Fox Film Corporation. All rights reserved.
Cover                                    : Yes
Rating                                   : None
Title/Sort                               : Murder on the Orient Express
LongDescription                          : Путешествие на одном из самых роскошных поездов Европы неожиданно превращается в одну из самых стильных и захватывающих загадок в истории. Фильм рассказывает историю тринадцати пассажиров поезда, каждый из которых находится под подозрением. И только сыщик должен как можно быстрее разгадать головоломку, прежде чем преступник нанесет новый удар.
AppleStoreCatalogID                      : 1297835448
Vendor                                   : Apple:vendor_id:2017-817969
ContentRating                            : mpaa|Unrated|???|
Video #1
ID                                       : 1
Format                                   : AVC
Format/Info                              : Advanced Video Codec
Format profile                           : High@L3.1
Format settings                          : CABAC / 9 Ref Frames
Format settings, CABAC                   : Yes
Format settings, ReFrames                : 9 frames
Codec ID                                 : avc1
Codec ID/Info                            : Advanced Video Coding
Duration                                 : 1h 53mn
Source duration                          : 1h 53mn
Bit rate                                 : 2 200 Kbps
Width                                    : 1 024 pixels
Height                                   : 432 pixels
Display aspect ratio                     : 2.40:1
Frame rate mode                          : Variable
Frame rate                               : 23.976 (24000/1001) fps
Minimum frame rate                       : 23.974 fps
Maximum frame rate                       : 23.981 fps
Color space                              : YUV
Chroma subsampling                       : 4:2:0
Bit depth                                : 8 bits
Scan type                                : Progressive
Bits/(Pixel*Frame)                       : 0.207
Stream size                              : 1.75 GiB (85%)
Source stream size                       : 1.75 GiB (85%)
Title                                    : Main Program
Writing library                          : x264 core 148 r2708 86b7198
Encoding settings                        : cabac=1 / ref=9 / deblock=1:0:0 / analyse=0x3:0x113 / me=umh / subme=9 / psy=1 / psy_rd=1.00:0.00 / mixed_ref=1 / me_range=32 / chroma_me=1 / trellis=1 / 8x8dct=1 / cqm=0 / deadzone=21,11 / fast_pskip=1 / chroma_qp_offset=-2 / threads=13 / lookahead_threads=1 / sliced_threads=0 / nr=0 / decimate=1 / interlaced=0 / bluray_compat=0 / constrained_intra=0 / bframes=6 / b_pyramid=2 / b_adapt=2 / b_bias=0 / direct=1 / weightb=1 / open_gop=0 / weightp=2 / keyint=240 / keyint_min=24 / scenecut=40 / intra_refresh=0 / rc_lookahead=40 / rc=2pass / mbtree=1 / bitrate=2200 / ratetol=1.0 / qcomp=0.60 / qpmin=0 / qpmax=69 / qpstep=4 / cplxblur=20.0 / qblur=0.5 / ip_ratio=1.40 / aq=1:1.00
Language                                 : English
Encoded date                             : UTC 2018-02-26 15:51:54
Tagged date                              : UTC 2018-02-26 15:52:00
Color range                              : Limited
Color primaries                          : BT.709
Transfer characteristics                 : BT.709
Matrix coefficients                      : BT.709
Menus                                    : 10,11
Video #2
ID                                       : 11
Format                                   : JPEG
Codec ID                                 : jpeg
Duration                                 : 1h 53mn
Bit rate mode                            : Variable
Bit rate                                 : 988 bps
Width                                    : 640 pixels
Height                                   : 270 pixels
Display aspect ratio                     : 2.40:1
Frame rate mode                          : Variable
Frame rate                               : 0.004 fps
Minimum frame rate                       : 0.002 fps
Maximum frame rate                       : 4.785 fps
Color space                              : YUV
Chroma subsampling                       : 4:2:0
Bit depth                                : 8 bits
Compression mode                         : Lossy
Bits/(Pixel*Frame)                       : 1.429
Stream size                              : 754 KiB (0%)
Title                                    : Chapter Images
Language                                 : English
Default                                  : No
Encoded date                             : UTC 2018-02-26 15:52:11
Tagged date                              : UTC 2018-02-26 15:52:12
Menu For                                 : 1
Audio #1
ID                                       : 2
Format                                   : AAC
Format/Info                              : Advanced Audio Codec
Format profile                           : LC
Codec ID                                 : mp4a-40-2
Duration                                 : 1h 53mn
Source duration                          : 1h 53mn
Bit rate mode                            : Variable
Bit rate                                 : 125 Kbps
Maximum bit rate                         : 193 Kbps
Channel(s)                               : 2 channels
Channel positions                        : Front: L R
Sampling rate                            : 48.0 KHz
Frame rate                               : 46.875 fps (1024 SPF)
Compression mode                         : Lossy
Stream size                              : 102 MiB (5%)
Source stream size                       : 102 MiB (5%)
Title                                    : Russian Stereo
Language                                 : Russian
Default                                  : Yes
Alternate group                          : 1
Encoded date                             : UTC 2018-02-26 15:51:54
Tagged date                              : UTC 2018-02-26 15:52:05
Subtitles                                : 5,7
Audio #2
ID                                       : 3
Format                                   : AAC
Format/Info                              : Advanced Audio Codec
Format profile                           : LC
Codec ID                                 : mp4a-40-2
Duration                                 : 1h 53mn
Source duration                          : 1h 53mn
Bit rate mode                            : Variable
Bit rate                                 : 125 Kbps
Maximum bit rate                         : 203 Kbps
Channel(s)                               : 2 channels
Channel positions                        : Front: L R
Sampling rate                            : 48.0 KHz
Frame rate                               : 46.875 fps (1024 SPF)
Compression mode                         : Lossy
Stream size                              : 102 MiB (5%)
Source stream size                       : 102 MiB (5%)
Title                                    : English Stereo
Language                                 : English
Default                                  : No
Alternate group                          : 1
Encoded date                             : UTC 2018-02-26 15:51:54
Tagged date                              : UTC 2018-02-26 15:52:05
Audio #3
ID                                       : 4
Format                                   : AAC
Format/Info                              : Advanced Audio Codec
Format profile                           : LC
Codec ID                                 : mp4a-40-2
Duration                                 : 1h 53mn
Source duration                          : 1h 53mn
Bit rate mode                            : Variable
Bit rate                                 : 125 Kbps
Maximum bit rate                         : 214 Kbps
Channel(s)                               : 2 channels
Channel positions                        : Front: L R
Sampling rate                            : 48.0 KHz
Frame rate                               : 46.875 fps (1024 SPF)
Compression mode                         : Lossy
Stream size                              : 102 MiB (5%)
Source stream size                       : 102 MiB (5%)
Title                                    : Ukrainian Stereo
Language                                 : Ukrainian
Default                                  : No
Alternate group                          : 1
Encoded date                             : UTC 2018-02-26 15:51:54
Tagged date                              : UTC 2018-02-26 15:52:05
Subtitles                                : 6,9
Text #1
ID                                       : 5
Format                                   : Timed Text
Muxing mode                              : sbtl
Codec ID                                 : tx3g
Duration                                 : 1h 36mn
Bit rate mode                            : Variable
Bit rate                                 : 2 bps
Stream size                              : 1.29 KiB (0%)
Title                                    : Russian forced
Language                                 : Russian
Default                                  : Yes
Forced                                   : Yes
Alternate group                          : 2
Encoded date                             : UTC 2018-02-26 15:51:54
Tagged date                              : UTC 2018-02-26 15:51:58
Subtitles For                            : 2
Full Alternative                         : 7
Text #2
ID                                       : 6
Format                                   : Timed Text
Muxing mode                              : sbtl
Codec ID                                 : tx3g
Duration                                 : 1h 53mn
Bit rate mode                            : Variable
Bit rate                                 : 1 bps
Stream size                              : 1.11 KiB (0%)
Title                                    : Ukrainian forced
Language                                 : Ukrainian
Default                                  : No
Forced                                   : Yes
Alternate group                          : 2
Encoded date                             : UTC 2018-02-26 15:51:54
Tagged date                              : UTC 2018-02-26 15:51:59
Subtitles For                            : 4
Full Alternative                         : 9
Text #3
ID                                       : 7
Format                                   : Timed Text
Muxing mode                              : sbtl
Codec ID                                 : tx3g
Duration                                 : 1h 53mn
Bit rate mode                            : Variable
Bit rate                                 : 116 bps
Stream size                              : 96.9 KiB (0%)
Title                                    : Russian full
Language                                 : Russian
Default                                  : No
Forced                                   : No
Alternate group                          : 2
Encoded date                             : UTC 2018-02-26 15:51:54
Tagged date                              : UTC 2018-02-26 15:51:59
Subtitles For                            : 2
Forced Alternative                       : 5
Text #4
ID                                       : 8
Format                                   : Timed Text
Muxing mode                              : sbtl
Codec ID                                 : tx3g
Duration                                 : 1h 46mn
Bit rate mode                            : Variable
Bit rate                                 : 82 bps
Stream size                              : 64.3 KiB (0%)
Title                                    : English full
Language                                 : English
Default                                  : No
Forced                                   : No
Alternate group                          : 2
Encoded date                             : UTC 2018-02-26 15:51:54
Tagged date                              : UTC 2018-02-26 15:51:59
Text #5
ID                                       : 9
Format                                   : Timed Text
Muxing mode                              : sbtl
Codec ID                                 : tx3g
Duration                                 : 1h 53mn
Bit rate mode                            : Variable
Bit rate                                 : 1 bps
Stream size                              : 1.11 KiB (0%)
Title                                    : Ukrainian full
Language                                 : Ukrainian
Default                                  : No
Forced                                   : No
Alternate group                          : 2
Encoded date                             : UTC 2018-02-26 15:51:54
Tagged date                              : UTC 2018-02-26 15:51:59
Subtitles For                            : 4
Forced Alternative                       : 6
Menu #1
00:00:00.000                             : Chapter 1
00:03:06.144                             : Chapter 2
00:06:42.193                             : Chapter 3
00:11:44.745                             : Chapter 4
00:18:26.188                             : Chapter 5
00:24:53.658                             : Chapter 6
00:33:14.158                             : Chapter 7
00:37:47.515                             : Chapter 8
00:43:16.510                             : Chapter 9
00:46:24.865                             : Chapter 10
00:51:23.580                             : Chapter 11
00:55:52.015                             : Chapter 12
01:00:03.183                             : Chapter 13
01:05:39.227                             : Chapter 14
01:10:40.152                             : Chapter 15
01:14:17.578                             : Chapter 16
01:18:05.055                             : Chapter 17
01:21:12.284                             : Chapter 18
01:24:39.366                             : Chapter 19
01:28:37.854                             : Chapter 20
01:32:28.376                             : Chapter 21
01:37:04.652                             : Chapter 22
01:40:30.024                             : Chapter 23
01:46:49.903                             : Chapter 24
01:53:55.703                             : Chapter 25
Menu #2
ID                                       : 10
Codec ID                                 : text
Duration                                 : 1h 53mn
Language                                 : English
Encoded date                             : UTC 2018-02-26 15:52:05
Tagged date                              : UTC 2018-02-26 15:52:05
Menu For                                 : 1
00:00:00.000                             : Chapter 1
00:03:06.144                             : Chapter 2
00:06:42.193                             : Chapter 3
00:11:44.745                             : Chapter 4
00:18:26.188                             : Chapter 5
00:24:53.658                             : Chapter 6
00:33:14.158                             : Chapter 7
00:37:47.515                             : Chapter 8
00:43:16.510                             : Chapter 9
00:46:24.865                             : Chapter 10
00:51:23.580                             : Chapter 11
00:55:52.015                             : Chapter 12
01:00:03.183                             : Chapter 13
01:05:39.227                             : Chapter 14
01:10:40.152                             : Chapter 15
01:14:17.578                             : Chapter 16
01:18:05.055                             : Chapter 17
01:21:12.284                             : Chapter 18
01:24:39.366                             : Chapter 19
01:28:37.854                             : Chapter 20
01:32:28.376                             : Chapter 21
01:37:04.652                             : Chapter 22
01:40:30.024                             : Chapter 23
01:46:49.903                             : Chapter 24
01:53:55.703                             : Chapter 25
Bit rate mode                            : VBR

Код:
Код:
x264 [info]: frame I:1168  Avg QP:12.26  size: 95028
x264 [info]: frame P:35362 Avg QP:14.62  size: 27520
x264 [info]: frame B:127369 Avg QP:17.07  size:  6243
x264 [info]: consecutive B-frames:  2.0%  3.2%  8.5% 15.4% 16.3% 41.7% 12.9%
x264 [info]: mb I  I16..4:  9.4% 66.0% 24.5%
x264 [info]: mb P  I16..4:  1.2%  5.7%  1.8%  P16..4: 33.6% 30.4% 19.0%  0.0%  0.0%    skip: 8.3%
x264 [info]: mb B  I16..4:  0.1%  0.4%  0.1%  B16..8: 40.6% 12.9%  3.5%  direct: 3.9%  skip:38.4%  L0:46.0% L1:42.4% BI:11.6%
x264 [info]: 8x8 transform intra:66.5% inter:66.7%
x264 [info]: coded y,uvDC,uvAC intra: 89.5% 79.2% 62.8% inter: 26.7% 19.4% 4.1%
x264 [info]: i16 v,h,dc,p: 41% 15%  9% 36%
x264 [info]: i8 v,h,dc,ddl,ddr,vr,hd,vl,hu: 11%  8%  6% 10% 14% 14% 13% 12% 12%
x264 [info]: i4 v,h,dc,ddl,ddr,vr,hd,vl,hu:  9%  9%  3% 10% 15% 14% 14% 12% 13%
x264 [info]: i8c dc,h,v,p: 45% 24% 19% 13%
x264 [info]: Weighted P-Frames: Y:4.1% UV:2.0%
x264 [info]: ref P L0: 46.5% 10.7% 16.9%  6.9%  6.0%  4.2%  4.0%  2.2%  2.4%  0.1%  0.0%
x264 [info]: ref B L0: 68.5% 13.7%  7.2%  3.7%  2.8%  2.3%  1.4%  0.4%
x264 [info]: ref B L1: 92.7%  7.3%
x264 [info]: kb/s:2199.34




Релиз подготовлен для просмотра на Apple TV, iPad, iPhone, iPod Touch.
Для просмотра данного релиза на компьютере с ОС Windows рекомендуется использовать VLC media player
загрузка...
Правила, инструкции, FAQ!!!
Торрент  Добавлен [08 мар 2018, 09:23] Скачать торрент Магнет ссылка
Скачать торрент
[ Размер 21.07 КБ / Просмотров 176 ]

Статус
Проверен 
 
Размер  2.06 ГБ
Приватный: Нет (DHT включён)
.torrent скачан  10
Как залить торрент? | Как скачать Torrent? | Ошибка в торренте? Качайте магнет  


     Отправить личное сообщение
   
Страница 1 из 1
Показать сообщения за:  Поле сортировки  
Начать новую тему Ответить на тему

   Похожие торренты   Автор   Ответы   Просмотры   Последнее сообщение 
В этой теме нет новых непрочитанных сообщений. Скачать торрент Проверен Убийство в Восточном экспрессе / Murder on the Orient Express (Кеннет Брана / Kenneth Branagh ) [2017, США, Великобритания, Мальта, Франция, Канада, Драма, криминал, детектив, BDRip, SD (480p)] DUB + Original + sub (rus, eng, ukr)

в форуме Фильмы для iPod, iPhone, iPad, Размер: 1.34 ГБ, Здоровье: 100%

Anonymous

0
192|25

446
20

08 мар 2018, 09:23

Anonymous Перейти к последнему сообщению

В этой теме нет новых непрочитанных сообщений. Скачать торрент Проверен Убийство в Восточном экспрессе / Murder on the Orient Express (Сидни Люмет) [1974, Великобритания, драма, детектив, BDRip SD (480p)] DUB, MVO, AVO, Original + SUB (eng)

в форуме Фильмы для iPod, iPhone, iPad, Размер: 2 ГБ, Здоровье: 100%

Anonymous

0
22|2

347
4

24 дек 2017, 23:12

Anonymous Перейти к последнему сообщению

В этой теме нет новых непрочитанных сообщений. Скачать торрент Проверен (Адаптированная аудиокнига) Christie Agatha / Кристи Агата – Murder on the Orient Express / Убийство в Восточном экспрессе (Penguin Readers level 4) [2009, PDF, MP3, ENG]

в форуме Английский язык (для взрослых), Размер: 183.27 МБ, Здоровье: 100%

Anonymous

0
59|18

151
3

27 фев 2017, 23:24

Anonymous Перейти к последнему сообщению

В этой теме нет новых непрочитанных сообщений. Скачать торрент Проверен [iPad] Сыщик / Sleuth (Кеннет Брэна / Kenneth Branagh) [2007., триллер, драма, детектив, BDRip 720p]

в форуме Фильмы для iPod, iPhone, iPad, Размер: 2.05 ГБ, Здоровье: 100%

Гость

0
12|3

71
0

11 май 2015, 01:37

Гость Перейти к последнему сообщению

В этой теме нет новых непрочитанных сообщений. Скачать торрент Джек Райан: Теория хаоса / Jack Ryan: Shadow Recruit (Кеннет Брана / Kenneth Branagh) [2014, США, Россия, боевик, триллер, детектив, BDRip] Dub (iTunes)

в форуме Боевики, Размер: 744.8 МБ, Здоровье: 100%

Anonymous

0
62|21

116
1

16 май 2014, 00:25

Anonymous Перейти к последнему сообщению



Сейчас этот форум просматривают: нет зарегистрированных пользователей и гости: 0


Вы не можете начинать темы
Вы не можете отвечать на сообщения
Вы не можете редактировать свои сообщения
Вы не можете удалять свои сообщения
Вы не можете добавлять вложения

Перейти:  
Ресурс не предоставляет электронные версии произведений, а занимается лишь коллекционированием и каталогизацией ссылок, присылаемых и публикуемых на форуме нашими читателями. Если вы являетесь правообладателем какого-либо представленного материала и не желаете чтобы ссылка на него находилась в нашем каталоге, свяжитесь с нами и мы незамедлительно удалим её. Файлы для обмена на трекере предоставлены пользователями сайта, и администрация не несёт ответственности за их содержание. Просьба не заливать файлы, защищенные авторскими правами, а также файлы нелегального содержания!
cron