На всех торрентах на трекере установлена скидка на скачивание в размере 100 процентов(а).
 Возможность скачивания торрента НЕ зависит от ограничений при низком ратио, низком аплоаде, требуемом ратио или требуемом аплоаде.


Начать новую тему Ответить на тему
Статистика раздачи
Размер: 1.46 ГБ | Добавлен: 21 окт 2014, 20:56 | Скачали: 0
Сидеров: 91  [0 байт/сек]    Личеров: 30  [0 байт/сек]
Пред. тема | След. тема 

Автор
Сообщение

СообщениеДобавлено: 21 окт 2014, 20:56 

Ответить с цитатой 

Убить дракона

«Чтобы избавиться от дракона, надо убить его в себе...»

Год выпуска: 1988
Жанр: Драма
Продолжительность: 01:55:52

Режиссер: Марк Захаров

В ролях: Александр Абдулов, Олег Янковский, Евгений Леонов, Вячеслав Тихонов, Александра Захарова, Виктор Раков, Александр Збруев, Франк Мут, Семен Фарада, Александр Филиппенко, Андрей Толубеев, Ольга Волкова, Джамбул Худайбергенов, Василий Петренко

Описание: О странствующем рыцаре Ланцелоте, бросившем вызов Дракону, о противостоянии человеческого достоинства деспотизму, тирании, реакции...

Это фильм, который надо пересматривать время от времени, хотя бы однажды в пять лет. На мой взгляд, он вечен, насколько может вообще что-либо быть вечным на земле... (Из отзывов зрителей)

Качество видео: DVDRip
Формат видео: AVI

Видео: 656x496 (1.32:1), 25 fps, XviD build 65 ~1662 kbps avg, 0.20 bit/pixel
Аудио: 48 kHz, MPEG Layer 3, 2 ch, ~128.00 kbps
[font=Georgia]Сценарий: Марк Захаров, Григорий Горин
Композитор: Геннадий Гладков
Текст песен: Юлий Ким.
Фильм снят по мотивам пьесы Евгения Шварца «Дракон» (1944)
СССР-ФРГ, ЗДФ-Штутгарт/Бавария-фильм/Ритм (кинокомпания «Мосфильм»)
Код:
General
Complete name                            : Ubit`_drakona_1.46_Olu6ka.avi
Format                                   : AVI
Format/Info                              : Audio Video Interleave
File size                                : 1.46 GiB
Duration                                 : 1h 55mn
Overall bit rate                         : 1 801 Kbps

Video
ID                                       : 0
Format                                   : MPEG-4 Visual
Format profile                           : Advanced Simple@L5
Format settings, BVOP                    : 1
Format settings, QPel                    : No
Format settings, GMC                     : No warppoints
Format settings, Matrix                  : Custom
Codec ID                                 : XVID
Codec ID/Hint                            : XviD
Duration                                 : 1h 55mn
Bit rate                                 : 1 663 Kbps
Width                                    : 656 pixels
Height                                   : 496 pixels
Display aspect ratio                     : 4:3
Frame rate                               : 25.000 fps
Color space                              : YUV
Chroma subsampling                       : 4:2:0
Bit depth                                : 8 bits
Scan type                                : Progressive
Compression mode                         : Lossy
Bits/(Pixel*Frame)                       : 0.204
Stream size                              : 1.35 GiB (92%)
Writing library                          : XviD 65

Audio
ID                                       : 1
Format                                   : MPEG Audio
Format version                           : Version 1
Format profile                           : Layer 3
Mode                                     : Joint stereo
Codec ID                                 : 55
Codec ID/Hint                            : MP3
Duration                                 : 1h 55mn
Bit rate mode                            : Constant
Bit rate                                 : 128 Kbps
Channel(s)                               : 2 channels
Sampling rate                            : 48.0 KHz
Compression mode                         : Lossy
Stream size                              : 106 MiB (7%)
Alignment                                : Aligned on interleaves
Interleave, duration                     : 40 ms (1.00 video frame)
Interleave, preload duration             : 504 ms
загрузка...
Правила, инструкции, FAQ!!!
Торрент  Добавлен [21 окт 2014, 20:56] Скачать торрент Магнет ссылка
Скачать торрент
[ Размер 15.18 КБ / Просмотров 31 ]

Статус
Проверен 
 
Размер  1.46 ГБ
Приватный: Нет (DHT включён)
.torrent скачан  0
Как залить торрент? | Как скачать Torrent? | Ошибка в торренте? Качайте магнет  


     Отправить личное сообщение
   
Страница 1 из 1
Показать сообщения за:  Поле сортировки  
Начать новую тему Ответить на тему

   Похожие торренты   Автор   Ответы   Просмотры   Последнее сообщение 
В этой теме нет новых непрочитанных сообщений. Скачать торрент Проверен Убить дракона (Марк Захаров) [1988, Германия (ФРГ), СССР, фэнтези, драма, семейный, DVDRip SD (480p)] Original + SUB (rus)

в форуме Фильмы для iPod, iPhone, iPad, Размер: 2.09 ГБ, Здоровье: 100%

Anonymous

0
6|1

38
0

24 дек 2017, 22:04

Anonymous Перейти к последнему сообщению

В этой теме нет новых непрочитанных сообщений. Скачать торрент Спайдервик: Хроники / The Spiderwick Chronicles (Марк С. Уотерс) [2008 г., Фэнтези, драма, приключения, семейный, DVDRip]

в форуме Детское, Семейное кино, Размер: 664.39 МБ, Здоровье: 100%

Anonymous

0
4|2

93
0

13 фев 2014, 11:40

Anonymous Перейти к последнему сообщению

В этой теме нет новых непрочитанных сообщений. Скачать торрент Проверен Убить дракона (1988) DVDRip [H.264]

в форуме Фантастика, Фэнтези, Размер: 1.39 ГБ, Здоровье: 100%

Гость

0
46|6

277
0

30 ноя 2014, 10:26

Гость Перейти к последнему сообщению

В этой теме нет новых непрочитанных сообщений. Скачать торрент Проверен Обыкновенное чудо (Марк Захаров) [1978, СССР, мюзикл, фэнтези, мелодрама, комедия, DVDRip SD (480p)] Original + SUB (rus, eng)

в форуме Фильмы для iPod, iPhone, iPad, Размер: 2.26 ГБ, Здоровье: 100%

Гость

0
38|12

114
0

11 май 2015, 01:26

Гость Перейти к последнему сообщению

В этой теме нет новых непрочитанных сообщений. Скачать торрент Проверен [iPhone] Персонаж / Stranger Than Fiction (Марк Форстер) [2006, фэнтези, мелодрама, драма, DVDRip]

в форуме Фильмы для iPod, iPhone, iPad, Размер: 472.83 МБ, Здоровье: 100%

Anonymous

0
3|1

85
0

18 май 2015, 10:52

Anonymous Перейти к последнему сообщению



Сейчас этот форум просматривают: нет зарегистрированных пользователей и гости: 0


Вы не можете начинать темы
Вы не можете отвечать на сообщения
Вы не можете редактировать свои сообщения
Вы не можете удалять свои сообщения
Вы не можете добавлять вложения

Перейти:  
Ресурс не предоставляет электронные версии произведений, а занимается лишь коллекционированием и каталогизацией ссылок, присылаемых и публикуемых на форуме нашими читателями. Если вы являетесь правообладателем какого-либо представленного материала и не желаете чтобы ссылка на него находилась в нашем каталоге, свяжитесь с нами и мы незамедлительно удалим её. Файлы для обмена на трекере предоставлены пользователями сайта, и администрация не несёт ответственности за их содержание. Просьба не заливать файлы, защищенные авторскими правами, а также файлы нелегального содержания!
cron