На всех торрентах на трекере установлена скидка на скачивание в размере 100 процентов(а).
 Возможность скачивания торрента НЕ зависит от ограничений при низком ратио, низком аплоаде, требуемом ратио или требуемом аплоаде.


Начать новую тему Ответить на тему
Статистика раздачи
Размер: 1.75 ГБ | Добавлен: 21 окт 2014, 20:54 | Скачали: 7
Сидеров: 57  [0 байт/сек]    Личеров: 16  [0 байт/сек]
Пред. тема | След. тема 

Автор
Сообщение

СообщениеДобавлено: 21 окт 2014, 20:54 

Ответить с цитатой 

Жанр: лирическая комедия
Год выпуска: 1975
Продолжительность: 01:13:48

Режиссёр: Александр Кузнецов, Оскар Никич

В ролях: Николай Гринько, Лия Ахеджакова, Нодар Пиранишвили, Валентина Теличкина, Гиви Берикашвили, Марина Полбенцева, Александр Кузнецов (II), Баадур Цуладзе, Азиз Агрба, Валентина Телегина, Гия Перадзе

Описание: Москвич проводит свой отпуск в маленьком абхазском селении. Радости и горести, будни и праздники жителей села вторгаются в его жизнь, и он становится их активным участником.


Качество видео: DVB
Формат видео: MPEG-PS

Видео: MPEG Video, 720(768)x576 (4:3), 25,000 кадров/сек, 3130 Кбит/сек
Аудио: MPEG Audio, 48,0 КГц, 192 Кбит/сек, 2 канала
Общее
Полное имя : E:\Torrent\У самого Черного моря (Дом Кино).mpg
Формат : MPEG-PS
Размер файла : 1,75 Гбайт
Продолжительность : 1 ч. 13 м.
Режим общего битрейта : Переменный
Общий поток : 3390 Кбит/сек

Видео
Идентификатор : 224 (0xE0)
Формат : MPEG Video
Версия формата : Version 2
Профиль формата : Main@Main
Параметр BVOP формата : Да
Параметр матрицы формата : Выборочная
Параметр GOP формата : M=3, N=12
Продолжительность : 1 ч. 13 м.
Вид битрейта : Переменный
Битрейт : 3130 Кбит/сек
Максимальный битрейт : 5000 Кбит/сек
Ширина : 720 пикселей
Высота : 576 пикселей
Соотношение сторон : 4:3
Частота кадров : 25,000 кадров/сек
Стандарт вещания : PAL
Цветовое пространство : YUV
Субдискретизация насыщенности : 4:2:0
Битовая глубина : 8 бит
Тип развёртки : Чересстрочная
Порядок развёртки : Верхнее поле первое
Метод сжатия : С потерями
Бит/(Пиксели*Кадры) : 0.302
Временной код первого кадра : 00:00:00:00
Оригинал временного кода : Group of pictures header
Размер потока : 1,61 Гбайт (92%)

Аудио
Идентификатор : 192 (0xC0)
Формат : MPEG Audio
Версия формата : Version 1
Профиль формата : Layer 2
Продолжительность : 1 ч. 13 м.
Вид битрейта : Постоянный
Битрейт : 192 Кбит/сек
Каналы : 2 канала
Частота : 48,0 КГц
Метод сжатия : С потерями
Задержка видео : 3 мс.
Размер потока : 101 Мбайт (6%)
загрузка...
Правила, инструкции, FAQ!!!
Торрент  Добавлен [21 окт 2014, 20:54] Скачать торрент Магнет ссылка
Скачать торрент
[ Размер 18 КБ / Просмотров 52 ]

Статус
Проверен 
 
Размер  1.75 ГБ
Приватный: Нет (DHT включён)
.torrent скачан  7
Как залить торрент? | Как скачать Torrent? | Ошибка в торренте? Качайте магнет  


     Отправить личное сообщение
   
Страница 1 из 1
Показать сообщения за:  Поле сортировки  
Начать новую тему Ответить на тему

   Похожие торренты   Автор   Ответы   Просмотры   Последнее сообщение 
В этой теме нет новых непрочитанных сообщений. Скачать торрент Проверен (Шансон) Александр Торчилин - У чёрного моря - 2005, MP3, 320 kbps

в форуме Шансон|Авторская песня, Размер: 88.83 МБ, Здоровье: 50%

Anonymous

0
5|10

36
2

05 ноя 2016, 18:14

Anonymous Перейти к последнему сообщению

В этой теме нет новых непрочитанных сообщений. Скачать торрент Проверен Катаев Валентин - Волны Черного моря 02, Хуторок в степи [Герасимов Вячеслав, 2015 г., 96 kbps, MP3]

в форуме Российская фантастика, фэнтези, мистика, ужасы, фанфики, Размер: 490.89 МБ, Здоровье: 100%

Anonymous

0
2|0

108
0

10 дек 2016, 16:49

Anonymous Перейти к последнему сообщению

В этой теме нет новых непрочитанных сообщений. Скачать торрент Проверен Джон Фаулз - Башня из черного дерева [А. Кузнецов, 2005, 107 кбит/с]

в форуме Аудиокниги (AAC, ALAC), Размер: 293.96 МБ, Здоровье: 100%

Anonymous

0
13|1

41
2

28 авг 2016, 19:24

Anonymous Перейти к последнему сообщению

В этой теме нет новых непрочитанных сообщений. Скачать торрент Проверен Время. События. Люди. Тайны нацизма [Александр Белый, Александр Бордуков, Александр Клюквин, Всеволод Кузнецов, 2008, 192 kbps]

в форуме Другие, Размер: 451.53 МБ, Здоровье: 100%

Anonymous

0
71|8

88
4

06 янв 2017, 09:30

Anonymous Перейти к последнему сообщению

В этой теме нет новых непрочитанных сообщений. Скачать торрент Проверен Время. События. Люди - Тайны нацизма [Александр Белый, Александр Бордуков, Александр Клюквин, Всеволод Кузнецов, 2008, Исторический, 64 kbps, m4b]

в форуме Аудиокниги (AAC, ALAC), Размер: 135.94 МБ, Здоровье: 100%

Anonymous

0
3|1

69
2

28 авг 2016, 16:22

Anonymous Перейти к последнему сообщению



Сейчас этот форум просматривают: нет зарегистрированных пользователей и гости: 0


Вы не можете начинать темы
Вы не можете отвечать на сообщения
Вы не можете редактировать свои сообщения
Вы не можете удалять свои сообщения
Вы не можете добавлять вложения

Перейти:  
Ресурс не предоставляет электронные версии произведений, а занимается лишь коллекционированием и каталогизацией ссылок, присылаемых и публикуемых на форуме нашими читателями. Если вы являетесь правообладателем какого-либо представленного материала и не желаете чтобы ссылка на него находилась в нашем каталоге, свяжитесь с нами и мы незамедлительно удалим её. Файлы для обмена на трекере предоставлены пользователями сайта, и администрация не несёт ответственности за их содержание. Просьба не заливать файлы, защищенные авторскими правами, а также файлы нелегального содержания!
cron