На всех торрентах на трекере установлена скидка на скачивание в размере 100 процентов(а).
 Возможность скачивания торрента НЕ зависит от ограничений при низком ратио, низком аплоаде, требуемом ратио или требуемом аплоаде.


Начать новую тему Ответить на тему
Статистика раздачи
Размер: 1.46 ГБ | Добавлен: 08 янв 2018, 02:10 | Скачали: 0
Сидеров: 2  [0 байт/сек]    Личеров: 0  [0 байт/сек]
Пред. тема | След. тема 

Автор
Сообщение

СообщениеДобавлено: 16 авг 2014, 21:10 

Ответить с цитатой 


Страна: Австралия / See-Saw Films

Жанр: драма, приключения, биография
Год выпуска: 2013
Продолжительность: 01:52:33

Перевод: Профессиональный (многоголосый)
Cубтитры: нет
Оригинальная аудиодорожка: нет

Режиссер: Джон Кёрран / John Curran

В ролях: Миа Васиковска, Адам Драйвер, Эмма Бут, Джессика Тоуви, Мелани Занетти, Райнер Бок, Роберт Колеби, Лили Перл, Кэрол Барнс, Брайан Пробетс...

Описание: Юная Робин решает в одиночку пересечь Австралию. В пути ее сопровождают лишь собака и четыре верблюда. Журнал «National Geographic», заинтересовавшись ее проектом, предлагает девушке писать путевые заметки и дает в сопровождение фотографа.



Качество: HDRip / DVD9 R5 от "Premium FILM" - Лицензионный диск + Tracks.2013.REPACK.720p.BluRay.Eng.Subs.x264-EbP.mkv
Формат: AVI

Видео: 720x304 (2.35:1), XviD 1396 Кбит/сек / 24.000 fps / Бит/(Пиксели*Кадры) : 0.266
Аудио: Dolby Digital Audio Russian 448 kbps / 5.1 / 48 kHz


Общее
Полное имя : Tropy.2013.P.HDRip.1.46GB_[New-Team]_by_avproh.avi
Формат : AVI
Формат/Информация : Audio Video Interleave
Размер файла : 1,46 Гбайт
Продолжительность : 1 ч. 52 м.
Общий поток : 1853 Кбит/сек
Программа кодирования : VirtualDubModRus 1.5.10.2 (build 2542/release)
Библиотека кодирования : VirtualDubMod build 2542/release

Видео
Идентификатор : 0
Формат : MPEG-4 Visual
Профиль формата : Advanced Simple@L5
Параметр BVOP формата : 1
Параметр QPel формата : Нет
Параметр GMC формата : Без точки перехода
Параметр матрицы формата : Выборочная
Идентификатор кодека : XVID
Идентификатор кодека/Подсказка : XviD
Продолжительность : 1 ч. 52 м.
Битрейт : 1396 Кбит/сек
Ширина : 720 пикселей
Высота : 304 пикселя
Соотношение сторон : 2,35:1
Частота кадров : 24,000 кадра/сек
Цветовое пространство : YUV
Субдискретизация насыщенности : 4:2:0
Битовая глубина : 8 бит
Тип развёртки : Прогрессивная
Метод сжатия : С потерями
Бит/(Пиксели*Кадры) : 0.266
Размер потока : 1,10 Гбайт (75%)
Библиотека кодирования : XviD 73

Аудио
Идентификатор : 1
Формат : AC-3
Формат/Информация : Audio Coding 3
Расширение режима : CM (complete main)
Параметр Endianness формата : Big
Идентификатор кодека : 2000
Продолжительность : 1 ч. 52 м.
Вид битрейта : Постоянный
Битрейт : 448 Кбит/сек
Каналы : 6 каналов
Расположение каналов : Front: L C R, Side: L R, LFE
Частота : 48,0 КГц
Битовая глубина : 16 бит
Метод сжатия : С потерями
Размер потока : 361 Мбайт (24%)
Выравнивание : Разделение по промежуткам
Продолжительность промежутка : 42 мс. (1,00 видеокадр)
Время предзагрузки промежутка : 500 мс.


загрузка...
Правила, инструкции, FAQ!!!
Торрент  Добавлен [08 янв 2018, 02:10] Скачать торрент Магнет ссылка
Скачать торрент
[ Размер 15.77 КБ / Просмотров 0 ]

Статус
Проверен 
 
Размер  1.46 ГБ
Приватный: Нет (DHT включён)
.torrent скачан  0
Как залить торрент? | Как скачать Torrent? | Ошибка в торренте? Качайте магнет  


     Отправить личное сообщение
   
Страница 1 из 1
Показать сообщения за:  Поле сортировки  
Начать новую тему Ответить на тему

   Похожие торренты   Автор   Ответы   Просмотры   Последнее сообщение 
В этой теме нет новых непрочитанных сообщений. Скачать торрент Александр Конторович | Черные тропы [2013] [FB2, RTF]

в форуме Фантастика, фэнтези, Размер: 16.96 МБ, Здоровье: 100%

Anonymous

0
18|7

114
1

05 июл 2013, 07:20

Anonymous Перейти к последнему сообщению

В этой теме нет новых непрочитанных сообщений. Скачать торрент ЗЛО 2 / V/H/S/2 (2013) HDRip | Лицензия

в форуме Ужасы, Размер: 1.46 ГБ, Здоровье: 0%

Anonymous

0
0|0

49
1

18 окт 2013, 23:15

Anonymous Перейти к последнему сообщению

В этой теме нет новых непрочитанных сообщений. Скачать торрент Проверен Джо / Joe (2013) HDRip | P | лицензия

в форуме Драмы, Мелодрамы, Размер: 1.46 ГБ, Здоровье: 100%

Anonymous

0
318|9

162
3383

05 июн 2014, 14:39

Anonymous Перейти к последнему сообщению

В этой теме нет новых непрочитанных сообщений. Скачать торрент РЭД 2 / Red 2 (2013) HDRip-AVC | D | Лицензия

в форуме Боевики, Размер: 745.69 МБ, Здоровье: 100%

Anonymous

0
1|0

50
3

19 ноя 2013, 19:48

Anonymous Перейти к последнему сообщению

В этой теме нет новых непрочитанных сообщений. Скачать торрент Ку! Кин-дза-дза (2013) HDRip | Лицензия

в форуме Отечественные мультфильмы, Размер: 1.37 ГБ, Здоровье: 100%

Anonymous

0
1|0

206
0

13 май 2013, 21:26

Anonymous Перейти к последнему сообщению



Сейчас этот форум просматривают: нет зарегистрированных пользователей и гости: 0


Вы не можете начинать темы
Вы не можете отвечать на сообщения
Вы не можете редактировать свои сообщения
Вы не можете удалять свои сообщения
Вы не можете добавлять вложения

Перейти:  

!ВНИМАНИЕ!
 Ресурс не предоставляет электронные версии произведений, а занимается лишь коллекционированием и каталогизацией ссылок, присылаемых и публикуемых на форуме нашими читателями. Если вы являетесь правообладателем какого-либо представленного материала и не желаете чтобы ссылка на него находилась в нашем каталоге, свяжитесь с нами и мы незамедлительно удалим её. Файлы для обмена на трекере предоставлены пользователями сайта, и администрация не несёт ответственности за их содержание. Просьба не заливать файлы, защищенные авторскими правами, а также файлы нелегального содержания!