На всех торрентах на трекере установлена скидка на скачивание в размере 100 процентов(а).
 Возможность скачивания торрента НЕ зависит от ограничений при низком ратио, низком аплоаде, требуемом ратио или требуемом аплоаде.


Начать новую тему Ответить на тему
Статистика раздачи
Размер: 4.89 ГБ | Добавлен: 29 янв 2017, 01:59 | Скачали: 4
Сидеров: 5  [0 байт/сек]    Личеров: 3  [0 байт/сек]
Пред. тема | След. тема 

Автор
Сообщение

СообщениеДобавлено: 29 янв 2017, 01:59 

Ответить с цитатой 

Название: Тролли
Оригинальное название: Trolls
Год выхода: 2016
Жанр: Мультфильм, мюзикл, фэнтези, комедия, приключения, семейный
Режиссер: Майк Митчелл, Уолт Дорн
В ролях: Анна Кендрик, Зои Дешанель, Джастин Тимберлэйк, Кристин Барански, Джеффри Тэмбор, Кристофер Минц-Плассе, Джеймс Корден, Кунал Найяр, Гвен Стефани, Расселл Брэнд

О фильме:
Отправляясь в увлекательное приключение, которое заведет ее далеко от привычного ей мира, Розочка объединяет усилия с самым мрачным троллем на свете по имени Цветан для достижения успеха в своей смелой миссии спасти ее друзей из тисков зловещих бергенов и их лидера, короля Хрящ Старший. Невероятные приключения Розочки проверят ее силу, покажут ее истинную суть и бросят вызов ее способности ударяться в пение в любой момент.


Страна: США
Студия: DreamWorks Animation
Продолжительность: 01:32:48
Перевод: Дублированный | iTunes


Качество: BDRip 1080p
Видео: MPEG-4 AVC, 1920x816, 5681 Kbit/s, 23.976 fps
Звук:
Аудио #01: 48 kHz, AC3, 5.1, 384 Kbps | Дублированный | iTunes |
Аудио #02: 48 kHz, DTS-ES, 5.1, 1510 kbps | Оригинал |

General
Unique ID : 218859573727728586181002794523140702104 (0xA4A6D217277D0DF1AFB045C783123F98)
Complete name : F:VideoTrolls.2016.BDRip.1080p.ExKinoRay.mkv
Format : Matroska
Format version : Version 4 / Version 2
File size : 4.89 GiB
Duration : 1 h 32 min
Overall bit rate : 7 575 kb/s
Encoded date : UTC 2017-01-25 18:10:37
Writing application : mkvmerge v8.3.0 ('Over the Horizon') 64bit
Writing library : libebml v1.3.1 + libmatroska v1.4.2

Video
ID : 1
Format : AVC
Format/Info : Advanced Video Codec
Format profile : High@L4.1
Format settings, CABAC : Yes
Format settings, ReFrames : 4 frames
Codec ID : V_MPEG4/ISO/AVC
Duration : 1 h 32 min
Bit rate : 5 681 kb/s
Width : 1 920 pixels
Height : 816 pixels
Display aspect ratio : 2.35:1
Frame rate mode : Constant
Frame rate : 23.976 (24000/1001) FPS
Color space : YUV
Chroma subsampling : 4:2:0
Bit depth : 8 bits
Scan type : Progressive
Bits/(Pixel*Frame) : 0.151
Stream size : 3.67 GiB (75%)
Writing library : x264 core 142 r2431+42 c69a006 tMod [8-bit@4:2:0 X86_64]
Encoding settings : cabac=1 / ref=4 / deblock=1:-3:-3 / analyse=0x3:0x113 / me=umh / subme=10 / psy=1 / fade_compensate=0.00 / psy_rd=1.00:0.05 / mixed_ref=1 / me_range=48 / chroma_me=1 / trellis=2 / 8x8dct=1 / cqm=0 / deadzone=21,11 / fast_pskip=0 / chroma_qp_offset=-2 / threads=12 / lookahead_threads=2 / sliced_threads=0 / nr=0 / decimate=1 / interlaced=0 / bluray_compat=0 / constrained_intra=0 / fgo=0 / bframes=8 / b_pyramid=2 / b_adapt=2 / b_bias=0 / direct=3 / weightb=1 / open_gop=0 / weightp=2 / keyint=250 / keyint_min=23 / scenecut=40 / intra_refresh=0 / rc_lookahead=40 / rc=crf / mbtree=0 / crf=19.0000 / qcomp=0.60 / qpmin=0:0:0 / qpmax=69:69:69 / qpstep=4 / vbv_maxrate=50000 / vbv_bufsize=45000 / crf_max=0.0 / nal_hrd=none / filler=0 / ip_ratio=1.40 / pb_ratio=1.30 / aq=3:1.00 / aq-sensitivity=10.00 / aq-factor=1.00:1.00:1.00 / aq2=0 / aq3=0
Language : English
Default : Yes
Forced : No
Color range : Limited
Matrix coefficients : BT.709

Audio #1
ID : 2
Format : AC-3
Format/Info : Audio Coding 3
Mode extension : CM (complete main)
Format settings, Endianness : Big
Codec ID : A_AC3
Duration : 1 h 32 min
Bit rate mode : Constant
Bit rate : 384 kb/s
Channel(s) : 6 channels
Channel positions : Front: L C R, Side: L R, LFE
Sampling rate : 48.0 kHz
Frame rate : 31.250 FPS (1536 spf)
Bit depth : 16 bits
Compression mode : Lossy
Stream size : 254 MiB (5%)
Title : iTunes
Language : Russian
Default : Yes
Forced : No

Audio #2
ID : 3
Format : DTS
Format/Info : Digital Theater Systems
Format profile : ES Matrix / Core
Mode : 16
Format settings, Endianness : Big
Codec ID : A_DTS
Duration : 1 h 32 min
Bit rate mode : Constant
Bit rate : 1 509 kb/s
Channel(s) : 7 channels / 6 channels
Channel positions : Front: L C R, Side: L R, Back: C, LFE / Front: L C R, Side: L R, LFE
Sampling rate : 48.0 kHz
Frame rate : 93.750 FPS (512 spf)
Bit depth : 24 bits
Compression mode : Lossy
Stream size : 997 MiB (20%)
Title : Original
Language : English
Default : No
Forced : No

Menu
00:00:00.000 : en:1
00:02:19.472 : en:2
00:06:21.922 : en:3
00:10:41.640 : en:4
00:13:25.595 : en:5
00:18:33.361 : en:6
00:22:11.787 : en:7
00:25:40.078 : en:8
00:28:52.728 : en:9
00:32:54.094 : en:10
00:36:32.103 : en:11
00:40:55.783 : en:12
00:44:20.654 : en:13
00:47:26.965 : en:14
00:51:26.079 : en:15
00:55:44.670 : en:16
00:59:57.756 : en:17
01:03:16.079 : en:18
01:05:16.657 : en:19
01:07:55.524 : en:20
01:10:24.256 : en:21
01:13:30.650 : en:22
01:16:20.236 : en:23
01:21:43.726 : en:24




Релиз от: Автор релиза:
Правила, инструкции, FAQ!!!
Торрент  Добавлен [29 янв 2017, 01:59] Скачать торрент Магнет ссылка
Скачать торрент
[ Размер 25.43 КБ / Просмотров 61 ]

Статус
Проверен 
 
Размер  4.89 ГБ
Приватный: Нет (DHT включён)
.torrent скачан  4
Как залить торрент? | Как скачать Torrent? | Ошибка в торренте? Качайте магнет  
загрузка...


     Отправить личное сообщение
   
Страница 1 из 1
Показать сообщения за:  Поле сортировки  
Начать новую тему Ответить на тему

   Похожие торренты   Автор   Ответы   Просмотры   Последнее сообщение 
В этой теме нет новых непрочитанных сообщений. Скачать торрент Проверен Тролли / Trolls (2016) HDRip от Scarabey | iTunes

в форуме Зарубежные мультфильмы, Размер: 1.41 ГБ, Здоровье: 100%

Гость

0
84|29

188
37

29 янв 2017, 01:54

Гость Перейти к последнему сообщению

В этой теме нет новых непрочитанных сообщений. Скачать торрент Проверен (Symphonic prog / RPI) New Trolls (New Trolls Atomic System, Il Mito New Trolls, La Leggenda New Trolls, Ut New Trolls) / Vittorio De Scalzi - Дискография (29 релизов) - 1968-2015, MP3, 128-320 kbpss

в форуме Progressive & Art-Rock, Размер: 3.58 ГБ, Здоровье: 100%

Anonymous

0
11|4

37
1

30 сен 2017, 16:42

Anonymous Перейти к последнему сообщению

В этой теме нет новых непрочитанных сообщений. Скачать торрент Проверен Обещание / The Promise (2016) BDRip 1080p | iTunes

в форуме 720p | 1080p, Размер: 10.54 ГБ, Здоровье: 77%

Гость

0
115|148

174
136

08 июл 2017, 19:05

Гость Перейти к последнему сообщению

В этой теме нет новых непрочитанных сообщений. Скачать торрент Проверен Жмот / Radin ! (2016) BDRip 1080p | iTunes

в форуме 720p | 1080p, Размер: 5.96 ГБ, Здоровье: 100%

Гость

0
798|87

123
2915

01 июл 2017, 23:26

Гость Перейти к последнему сообщению

В этой теме нет новых непрочитанных сообщений. Закрыто правообладателем Прибытие / Arrival (2016) BDRip 1080p | iTunes Данный торрент является блокированным, причина: Закрыто правообладателем

в форуме 720p | 1080p, Размер: 10.07 ГБ, Здоровье: 100%

Гость

0
1694|126

153
613

03 фев 2017, 01:02

Гость Перейти к последнему сообщению



Сейчас этот форум просматривают: нет зарегистрированных пользователей и гости: 1


Вы не можете начинать темы
Вы не можете отвечать на сообщения
Вы не можете редактировать свои сообщения
Вы не можете удалять свои сообщения
Вы не можете добавлять вложения

Перейти:  
Ресурс не предоставляет электронные версии произведений, а занимается лишь коллекционированием и каталогизацией ссылок, присылаемых и публикуемых на форуме нашими читателями. Если вы являетесь правообладателем какого-либо представленного материала и не желаете чтобы ссылка на него находилась в нашем каталоге, свяжитесь с нами и мы незамедлительно удалим её. Файлы для обмена на трекере предоставлены пользователями сайта, и администрация не несёт ответственности за их содержание. Просьба не заливать файлы, защищенные авторскими правами, а также файлы нелегального содержания!
cron