На всех торрентах на трекере установлена скидка на скачивание в размере 100 процентов(а).
 Возможность скачивания торрента НЕ зависит от ограничений при низком ратио, низком аплоаде, требуемом ратио или требуемом аплоаде.


Начать новую тему Ответить на тему
Статистика раздачи
Размер: 3.46 ГБ | Добавлен: 21 дек 2014, 00:52 | Скачали: 2
Сидеров: 40  [0 байт/сек]    Личеров: 13  [0 байт/сек]
Пред. тема | След. тема 

Автор
Сообщение

СообщениеДобавлено: 21 дек 2014, 00:52 

Ответить с цитатой 

Год выпуска: 2004
Производство: США | DisneyToon Studios, Walt Disney Pictures
Жанр: мультфильм, комедия, приключения, семейный

Описание:
Заветная мечта трех лучших друзей Микки, Дональда и Гуфи — стать мушкетерами. Их размеренная жизнь перевернулась вверх дном,
когда ребята оказались вовлеченными в коварный заговор капитана королевских мушкетеров Пита и лейтенанта Кларабелля,
которые решили избавиться от принцессы Минни — единственного препятствия на пути Пита к королевскому трону.

Возможно, Микки, Дональд и Гуфи и не выглядят героями, но они припасли пару сюрпризов для капитана Пита.
Дружба и сплоченность — вот их главный козырь!

Режиссер: Донован Кук



За видеоряд с оригинальной озвучкой Спасибо SADPANDA

Продолжительность: 01:07:41
Качество видео: BDRip 720p

Перевод: Полный дубляж, вкл. песни
Язык субтитров: Английский
Вид субтитров: Вшитые, отключаемые

Видео: MPEG-4 AVC/H.264, 1280x720 (16:9), 23.976 fps, 5 425 Kbps (0.246 bit/pixel)
Аудио #1: AC-3, 48.0 KHz, 6 ch, 384 Kbps, CBR (Русский)
Аудио #2: DTS, 48.0 KHz, 6 ch, 1 510 Kbps, CBR (Английский)
Complete name \Mickey.Donald.Goofy.The.Three.Musketeers.2004.BDRip.720p.mkv
Format : Matroska
Format version : Version 2
File size : 3.46 GiB
Duration : 1h 7mn
Overall bit rate : 7 315 Kbps
Movie name : Mickey Donald Goofy: The Three Musketeers 2004
Encoded date : UTC 2014-12-20 10:03:32
Writing application : mkvmerge v5.8.0 ('No Sleep / Pillow') built on Sep 2 2012 15:37:04
Writing library : libebml v1.2.3 + libmatroska v1.3.0

Video
ID : 1
Format : AVC
Format/Info : Advanced Video Codec
Format profile :
Format settings, CABAC : Yes
Format settings, ReFrames : 5 frames
Codec ID : V_MPEG4/ISO/AVC
Duration : 1h 7mn
Bit rate : 5 425 Kbps
Width : 1 280 pixels
Height : 720 pixels
Display aspect ratio : 16:9
Frame rate mode : Constant
Frame rate : 23.976 fps
Color space : YUV
Chroma subsampling : 4:2:0
Bit depth : 8 bits
Scan type : Progressive
Bits/(Pixel*Frame) : 0.246
Stream size : 2.49 GiB (72%)
Writing library : x264 core 142 r2491 24e4fed
Encoding settings : cabac=1 / ref=5 / deblock=1:0:0 / analyse=0x3:0x133 / me=umh / subme=8 / psy=1 / psy_rd=1.00:0.00 / mixed_ref=1 / me_range=16 / chroma_me=1 / trellis=1 / 8x8dct=1 / cqm=0 / deadzone=21,11 / fast_pskip=0 / chroma_qp_offset=-2 / threads=12 / lookahead_threads=2 / sliced_threads=0 / nr=0 / decimate=1 / interlaced=0 / bluray_compat=0 / constrained_intra=0 / bframes=3 / b_pyramid=2 / b_adapt=1 / b_bias=0 / direct=1 / weightb=1 / open_gop=0 / weightp=2 / keyint=250 / keyint_min=23 / scenecut=40 / intra_refresh=0 / rc_lookahead=40 / rc=2pass / mbtree=1 / bitrate=5425 / ratetol=1.0 / qcomp=0.60 / qpmin=0 / qpmax=69 / qpstep=4 / cplxblur=20.0 / qblur=0.5 / ip_ratio=1.40 / aq=1:1.00
Language : English
Default : Yes
Forced : No

Audio #1
ID : 2
Format : AC-3
Format/Info : Audio Coding 3
Mode extension : CM (complete main)
Format settings, Endianness : Big
Codec ID : A_AC3
Duration : 1h 7mn
Bit rate mode : Constant
Bit rate : 384 Kbps
Channel(s) : 6 channels
Channel positions : Front: L C R, Side: L R, LFE
Sampling rate : 48.0 KHz
Bit depth : 16 bits
Compression mode : Lossy
Stream size : 186 MiB (5%)
Language : Russian
Default : Yes
Forced : No

Audio #2
ID : 3
Format : DTS
Format/Info : Digital Theater Systems
Mode : 16
Format settings, Endianness : Big
Codec ID : A_DTS
Duration : 1h 7mn
Bit rate mode : Constant
Bit rate : 1 509 Kbps
Channel(s) : 6 channels
Channel positions : Front: L C R, Side: L R, LFE
Sampling rate : 48.0 KHz
Bit depth : 24 bits
Compression mode : Lossy
Stream size : 731 MiB (21%)
Language : English
Default : No
Forced : No

Text
ID : 4
Format : UTF-8
Codec ID : S_TEXT/UTF8
Codec ID/Info : UTF-8 Plain Text
Language : English
Default : No
Forced : No

Menu
00:00:00.000 : en:1
00:04:28.000 : en:2
00:09:32.000 : en:3
00:15:56.000 : en:4
00:23:01.000 : en:5
00:28:49.000 : en:6
00:34:44.000 : en:7
00:42:13.000 : en:8
00:47:35.000 : en:9
00:52:36.000 : en:10
00:59:09.000 : en:11
Скриншоты:

Правила, инструкции, FAQ!!!
Торрент  Добавлен [21 дек 2014, 00:52] Скачать торрент Магнет ссылка
Скачать торрент
[ Размер 18.12 КБ / Просмотров 25 ]

Статус
Проверен 
 
Размер  3.46 ГБ
Приватный: Нет (DHT включён)
.torrent скачан  2
Как залить торрент? | Как скачать Torrent? | Ошибка в торренте? Качайте магнет  
загрузка...


     Отправить личное сообщение
   
Страница 1 из 1
Показать сообщения за:  Поле сортировки  
Начать новую тему Ответить на тему

   Похожие торренты   Автор   Ответы   Просмотры   Последнее сообщение 
В этой теме нет новых непрочитанных сообщений. Скачать торрент Проверен Клуб Микки Мауса: Выходные с Микки / Mickey Mouse Clubhouse: Mickey's Big Splash (2009) DVDRip

в форуме Развивающее Видео для детей, Размер: 1.46 ГБ, Здоровье: 50%

Anonymous

0
1|2

120
0

30 ноя 2015, 23:14

Anonymous Перейти к последнему сообщению

В этой теме нет новых непрочитанных сообщений. Скачать торрент Проверен Три мушкетера / The Three Musketeers (Ричард Лестер) [1973, Испания, США, Панама, Великобритания, боевик, мелодрама, комедия, приключения, BDRip SD (480p)] MVO, DVO, Original + SUB (eng)

в форуме Фильмы для iPod, iPhone, iPad, Размер: 1.58 ГБ, Здоровье: 100%

Гость

0
4|2

106
0

12 май 2015, 00:08

Гость Перейти к последнему сообщению

В этой теме нет новых непрочитанных сообщений. Скачать торрент Проверен Клуб Микки Мауса: Микки спасает Санту / Mickey Saves Santa and Other Mouseketales (2006) DVDRip

в форуме Развивающее Видео для детей, Размер: 1.23 ГБ, Здоровье: 100%

Anonymous

0
3|3

142
0

30 ноя 2015, 23:18

Anonymous Перейти к последнему сообщению

В этой теме нет новых непрочитанных сообщений. Скачать торрент Проверен Клуб Микки Мауса: Веселый Хэллоуин / Mickey Mouse Clubhouse: Mickey's Treat (2010) DVDRip

в форуме Развивающее Видео для детей, Размер: 1.37 ГБ, Здоровье: 100%

Anonymous

0
3|2

161
0

30 ноя 2015, 23:07

Anonymous Перейти к последнему сообщению

В этой теме нет новых непрочитанных сообщений. Скачать торрент Проверен Клуб Микки Мауса: Великолепная шестерка / Mickey Mouse Clubhouse: Mickey's Big Band Concert (2011) DVDRip

в форуме Развивающее Видео для детей, Размер: 1.37 ГБ, Здоровье: 100%

Гость

0
7|1

98
0

30 ноя 2015, 23:18

Гость Перейти к последнему сообщению



Сейчас этот форум просматривают: нет зарегистрированных пользователей и гости: 0


Вы не можете начинать темы
Вы не можете отвечать на сообщения
Вы не можете редактировать свои сообщения
Вы не можете удалять свои сообщения
Вы не можете добавлять вложения

Перейти:  
Ресурс не предоставляет электронные версии произведений, а занимается лишь коллекционированием и каталогизацией ссылок, присылаемых и публикуемых на форуме нашими читателями. Если вы являетесь правообладателем какого-либо представленного материала и не желаете чтобы ссылка на него находилась в нашем каталоге, свяжитесь с нами и мы незамедлительно удалим её. Файлы для обмена на трекере предоставлены пользователями сайта, и администрация не несёт ответственности за их содержание. Просьба не заливать файлы, защищенные авторскими правами, а также файлы нелегального содержания!
cron