На всех торрентах на трекере установлена скидка на скачивание в размере 100 процентов(а).
 Возможность скачивания торрента НЕ зависит от ограничений при низком ратио, низком аплоаде, требуемом ратио или требуемом аплоаде.


Начать новую тему Ответить на тему
Статистика раздачи
Размер: 1.36 ГБ | Добавлен: 08 мар 2018, 09:23 | Скачали: 17
Сидеров: 237  [0 байт/сек]    Личеров: 32  [0 байт/сек]
Пред. тема | След. тема 

Автор
Сообщение

СообщениеДобавлено: 08 мар 2018, 09:23 

Ответить с цитатой 

Три билборда на границе Эббинга, Миссури / Three Billboards Outside Ebbing, Missouri

-
8.311 / 10 8.30 / 10
Год выпуска: 2017
Страна: США
Жанр: Драма, криминал
Продолжительность: 01:55:20
Перевод: Дублированный (Лицензия)
Оригинальная аудиодорожка: Есть
Cубтитры: Русские форсированные, Русские, Английские, Украинские
Режиссёр: Мартин МакДона
Сценарий: Мартин МакДона
Продюсер: Мартин МакДона, Дэниэл Баттсек, Грэм Бродбент
Оператор: Бен Дэвис
Композитор: Картер Бёруэлл
Художник: Инбал Вейнберг, Джесси Розенталь, Мелисса Тот
Монтаж: Джон Грегори
В ролях: Фрэнсис МакДорманд, Вуди Харрельсон, Сэм Рокуэлл, Джон Хоукс, Питер Динклэйдж, Калеб Лэндри Джонс, Лукас Хеджес, Эбби Корниш, Керри Кондон, Даррел Бритт-Гибсон
Бюджет: $15 000 000
Сборы в США: $48 369 506
Сборы в мире: + $63 823 088 = $112 192 594
Сборы в России: $1 914 690
Мировая премьера: 4 сентября 2017
Премьера (РФ): 1 февраля 2018, «Двадцатый Век Фокс СНГ»
Цифровой релиз: 23 марта 2018, «Двадцатый Век Фокс СНГ»
Описание: Спустя несколько месяцев после убийства дочери Милдред Хейс преступники так и не найдены. Отчаявшаяся женщина решается на смелый шаг, арендуя на въезде в город три биллборда с посланием к авторитетному главе полиции Уильяму Уиллоуби. Когда в ситуацию оказывается втянут еще и заместитель шерифа, инфантильный маменькин сынок со склонностью к насилию, офицер Диксон, борьба между Милдред и властями города только усугубляется.
Качество исходника: Blu-Ray (BlueBird)
Качество: BDRip
Тип: SD (480p)
Контейнер: M4V
Видео: H.264, 640x356 анаморф 852х356, 2.40:1, 1 300 Kbps, 23.976 (24000/1001) fps
Аудио 1: Русский/Дублированный (Лицензия), AAC / 2.0 / 128 Kbps / 48.0 KHz
Аудио 2: Английский/Оригинальная дорожка , AAC / 2.0 / 128 Kbps / 48.0 KHz
Аудио 3: Украинский/Дублированный (Лицензия), AAC / 2.0 / 128 Kbps / 48.0 KHz
Субтитры 1: Русские форсированные
Субтитры 2: Русские полные
Субтитры 3: Английские полные
Субтитры 4: Украинские полные


Код:
Код:
Sort Name: Three Billboards Outside Ebbing, Missouri
XID: Apple:vendor_id:2017-944098
contentID: 1313637060
Copyright: © 2017 Twentieth Century Fox Film Corporation. All rights reserved.
Screenwriters: Мартин МакДона
Producers: Мартин МакДона, Дэниэл Баттсек, Грэм Бродбент
Director: Мартин МакДона
Cast: Фрэнсис МакДорманд, Вуди Харрельсон, Сэм Рокуэлл, Джон Хоукс, Питер Динклэйдж, Калеб Лэндри Джонс, Лукас Хеджес, Эбби Корниш, Керри Кондон, Даррел Бритт-Гибсон
Studio: Fox Searchlight
Rating: 5
Long Description: Спустя несколько месяцев после убийства дочери Милдред Хейс преступники так и не найдены. Отчаявшаяся женщина решается на смелый шаг, арендуя на въезде в город три биллборда с посланием к авторитетному главе полиции Уильяму Уиллоуби. Когда в ситуацию оказывается втянут еще и заместитель шерифа, инфантильный маменькин сынок со склонностью к насилию, офицер Диксон, борьба между Милдред и властями города только усугубляется.
Description: Спустя несколько месяцев после убийства дочери Милдред Хейс преступники так и не найдены. Отчаявшаяся женщина решается на смелый шаг, арендуя на въезде в город три биллборда с посланием к авторитетному главе полиции Уильяму Уиллоуби. Когда в ситуацию оказывается втянут еще и заместитель шерифа, инфантильный маменькин сынок со склонностью к насилию, офицер Диксон, борьба между Милдред и властями города только усугубляется.
Release Date: 2017-09-04T08:00:00Z
Genre: Drama
Artist: Martin McDonagh
Name: Three Billboards Outside Ebbing, Missouri

Код:
Код:
General
Complete name                            : /Users/imac/HandBrake/Three Billboards.Outside.Ebbing.Missouri.(480p).(pk)..m4v
Format                                   : MPEG-4
Codec ID                                 : M4V  (M4V /M4A /mp42/isom)
File size                                : 1.36 GiB
Duration                                 : 1h 55mn
Overall bit rate mode                    : Variable
Overall bit rate                         : 1 683 Kbps
Movie name                               : Three Billboards Outside Ebbing, Missouri
Performer                                : Martin McDonagh
Director                                 : Мартин МакДона
Actor                                    : Фрэнсис МакДорманд / Вуди Харрельсон / Сэм Рокуэлл / Джон Хоукс / Питер Динклэйдж / Калеб Лэндри Джонс / Лукас Хеджес / Эбби Корниш / Керри Кондон / Даррел Бритт-Гибсон
Screenplay by                            : Мартин МакДона
Producer                                 : Мартин МакДона / Дэниэл Баттсек / Грэм Бродбент
Production studio                        : Fox Searchlight
Genre                                    : Drama
ContentType                              : Short Film
Description                              : Спустя несколько месяцев после убийства дочери Милдред Хейс преступники так и не найдены. Отчаявшаяся женщина решается на смелый шаг, арендуя на въезде в город три биллборда с посланием к авторитетному главе полиции Уильяму Уиллоуби. Когда в ситуацию оказывается втянут еще и заместитель шерифа, инфантильный маменькин сынок со склонностью к насилию, офицер Диксон, борьба между Милдред и властями города только усугубляется.
Recorded date                            : UTC 2017-09-04 08:00:00
Encoded date                             : UTC 2018-02-22 10:00:29
Tagged date                              : UTC 2018-02-22 10:05:10
Copyright                                : © 2017 Twentieth Century Fox Film Corporation. All rights reserved.
Cover                                    : Yes
Rating                                   : None
Title/Sort                               : Three Billboards Outside Ebbing, Missouri
LongDescription                          : Спустя несколько месяцев после убийства дочери Милдред Хейс преступники так и не найдены. Отчаявшаяся женщина решается на смелый шаг, арендуя на въезде в город три биллборда с посланием к авторитетному главе полиции Уильяму Уиллоуби. Когда в ситуацию оказывается втянут еще и заместитель шерифа, инфантильный маменькин сынок со склонностью к насилию, офицер Диксон, борьба между Милдред и властями города только усугубляется.
AppleStoreCatalogID                      : 1313637060
Vendor                                   : Apple:vendor_id:2017-944098
ContentRating                            : mpaa|R|400|
Video #1
ID                                       : 1
Format                                   : AVC
Format/Info                              : Advanced Video Codec
Format profile                           : Baseline@L3
Format settings                          : 2 Ref Frames
Format settings, CABAC                   : No
Format settings, ReFrames                : 2 frames
Codec ID                                 : avc1
Codec ID/Info                            : Advanced Video Coding
Duration                                 : 1h 55mn
Bit rate                                 : 1 300 Kbps
Width                                    : 640 pixels
Height                                   : 356 pixels
Display aspect ratio                     : 2.40:1
Frame rate mode                          : Variable
Frame rate                               : 23.976 (24000/1001) fps
Minimum frame rate                       : 23.974 fps
Maximum frame rate                       : 23.981 fps
Color space                              : YUV
Chroma subsampling                       : 4:2:0
Bit depth                                : 8 bits
Scan type                                : Progressive
Bits/(Pixel*Frame)                       : 0.238
Stream size                              : 1.05 GiB (77%)
Title                                    : Main Program
Writing library                          : x264 core 148 r2708 86b7198
Encoding settings                        : cabac=0 / ref=2 / deblock=1:0:0 / analyse=0x1:0x111 / me=umh / subme=6 / psy=1 / psy_rd=1.00:0.00 / mixed_ref=1 / me_range=16 / chroma_me=1 / trellis=0 / 8x8dct=0 / cqm=0 / deadzone=21,11 / fast_pskip=1 / chroma_qp_offset=-2 / threads=11 / lookahead_threads=1 / sliced_threads=0 / nr=0 / decimate=1 / interlaced=0 / bluray_compat=0 / constrained_intra=0 / bframes=0 / weightp=0 / keyint=240 / keyint_min=24 / scenecut=40 / intra_refresh=0 / rc_lookahead=40 / rc=2pass / mbtree=1 / bitrate=1300 / ratetol=1.0 / qcomp=0.60 / qpmin=0 / qpmax=69 / qpstep=4 / cplxblur=20.0 / qblur=0.5 / vbv_maxrate=5000 / vbv_bufsize=5000 / nal_hrd=none / filler=0 / ip_ratio=1.40 / aq=1:1.00
Language                                 : English
Encoded date                             : UTC 2018-02-22 10:00:29
Tagged date                              : UTC 2018-02-22 10:00:35
Color range                              : Limited
Color primaries                          : BT.709
Transfer characteristics                 : BT.709
Matrix coefficients                      : BT.709
Menus                                    : 9,10
Video #2
ID                                       : 10
Format                                   : JPEG
Codec ID                                 : jpeg
Duration                                 : 1h 55mn
Bit rate mode                            : Variable
Bit rate                                 : 781 bps
Width                                    : 640 pixels
Height                                   : 267 pixels
Display aspect ratio                     : 2.40:1
Frame rate mode                          : Variable
Frame rate                               : 0.003 fps
Minimum frame rate                       : 0.002 fps
Maximum frame rate                       : 0.006 fps
Color space                              : YUV
Chroma subsampling                       : 4:2:0
Bit depth                                : 8 bits
Compression mode                         : Lossy
Bits/(Pixel*Frame)                       : 1.523
Stream size                              : 763 KiB (0%)
Title                                    : Chapter Images
Language                                 : English
Default                                  : No
Encoded date                             : UTC 2018-02-22 10:00:43
Tagged date                              : UTC 2018-02-22 10:00:43
Menu For                                 : 1
Audio #1
ID                                       : 2
Format                                   : AAC
Format/Info                              : Advanced Audio Codec
Format profile                           : LC
Codec ID                                 : mp4a-40-2
Duration                                 : 1h 55mn
Source duration                          : 1h 55mn
Bit rate mode                            : Variable
Bit rate                                 : 125 Kbps
Maximum bit rate                         : 213 Kbps
Channel(s)                               : 2 channels
Channel positions                        : Front: L R
Sampling rate                            : 48.0 KHz
Frame rate                               : 46.875 fps (1024 SPF)
Compression mode                         : Lossy
Stream size                              : 103 MiB (7%)
Source stream size                       : 103 MiB (7%)
Title                                    : Russian Stereo
Language                                 : Russian
Default                                  : Yes
Alternate group                          : 1
Encoded date                             : UTC 2018-02-22 10:00:29
Tagged date                              : UTC 2018-02-22 10:00:39
Subtitles                                : 5,6
Audio #2
ID                                       : 3
Format                                   : AAC
Format/Info                              : Advanced Audio Codec
Format profile                           : LC
Codec ID                                 : mp4a-40-2
Duration                                 : 1h 55mn
Source duration                          : 1h 55mn
Bit rate mode                            : Variable
Bit rate                                 : 125 Kbps
Maximum bit rate                         : 209 Kbps
Channel(s)                               : 2 channels
Channel positions                        : Front: L R
Sampling rate                            : 48.0 KHz
Frame rate                               : 46.875 fps (1024 SPF)
Compression mode                         : Lossy
Stream size                              : 103 MiB (7%)
Source stream size                       : 103 MiB (7%)
Title                                    : English Stereo
Language                                 : English
Default                                  : No
Alternate group                          : 1
Encoded date                             : UTC 2018-02-22 10:00:29
Tagged date                              : UTC 2018-02-22 10:00:39
Audio #3
ID                                       : 4
Format                                   : AAC
Format/Info                              : Advanced Audio Codec
Format profile                           : LC
Codec ID                                 : mp4a-40-2
Duration                                 : 1h 55mn
Source duration                          : 1h 55mn
Bit rate mode                            : Variable
Bit rate                                 : 126 Kbps
Maximum bit rate                         : 206 Kbps
Channel(s)                               : 2 channels
Channel positions                        : Front: L R
Sampling rate                            : 48.0 KHz
Frame rate                               : 46.875 fps (1024 SPF)
Compression mode                         : Lossy
Stream size                              : 104 MiB (7%)
Source stream size                       : 104 MiB (7%)
Title                                    : Ukrainian Stereo
Language                                 : Ukrainian
Default                                  : No
Alternate group                          : 1
Encoded date                             : UTC 2018-02-22 10:00:29
Tagged date                              : UTC 2018-02-22 10:00:39
Text #1
ID                                       : 5
Format                                   : Timed Text
Muxing mode                              : sbtl
Codec ID                                 : tx3g
Duration                                 : 41mn 46s
Bit rate mode                            : Variable
Bit rate                                 : 1 bps
Stream size                              : 367 Bytes (0%)
Title                                    : Russian forced
Language                                 : Russian
Default                                  : Yes
Forced                                   : Yes
Alternate group                          : 2
Encoded date                             : UTC 2018-02-22 10:00:29
Tagged date                              : UTC 2018-02-22 10:00:33
Subtitles For                            : 2
Full Alternative                         : 6
Text #2
ID                                       : 6
Format                                   : Timed Text
Muxing mode                              : sbtl
Codec ID                                 : tx3g
Duration                                 : 1h 50mn
Bit rate mode                            : Variable
Bit rate                                 : 87 bps
Stream size                              : 70.2 KiB (0%)
Title                                    : Russian full
Language                                 : Russian
Default                                  : No
Forced                                   : No
Alternate group                          : 2
Encoded date                             : UTC 2018-02-22 10:00:29
Tagged date                              : UTC 2018-02-22 10:00:38
Subtitles For                            : 2
Forced Alternative                       : 5
Text #3
ID                                       : 7
Format                                   : Timed Text
Muxing mode                              : sbtl
Codec ID                                 : tx3g
Duration                                 : 1h 50mn
Bit rate mode                            : Variable
Bit rate                                 : 70 bps
Stream size                              : 56.5 KiB (0%)
Title                                    : English full
Language                                 : English
Default                                  : No
Forced                                   : No
Alternate group                          : 2
Encoded date                             : UTC 2018-02-22 10:00:29
Tagged date                              : UTC 2018-02-22 10:00:38
Text #4
ID                                       : 8
Format                                   : Timed Text
Muxing mode                              : sbtl
Codec ID                                 : tx3g
Duration                                 : 1h 50mn
Bit rate mode                            : Variable
Bit rate                                 : 83 bps
Stream size                              : 67.0 KiB (0%)
Title                                    : Ukrainian full
Language                                 : Ukrainian
Default                                  : No
Forced                                   : No
Alternate group                          : 2
Encoded date                             : UTC 2018-02-22 10:00:29
Tagged date                              : UTC 2018-02-22 10:00:38
Menu #1
00:00:00.000                             : Chapter 1
00:05:42.092                             : Chapter 2
00:08:56.911                             : Chapter 3
00:12:50.019                             : Chapter 4
00:19:46.644                             : Chapter 5
00:23:43.547                             : Chapter 6
00:27:36.363                             : Chapter 7
00:31:35.769                             : Chapter 8
00:35:08.690                             : Chapter 9
00:40:54.827                             : Chapter 10
00:44:35.715                             : Chapter 11
00:49:18.789                             : Chapter 12
00:55:35.916                             : Chapter 13
00:59:56.134                             : Chapter 14
01:04:09.888                             : Chapter 15
01:10:55.293                             : Chapter 16
01:15:36.699                             : Chapter 17
01:23:08.734                             : Chapter 18
01:27:24.489                             : Chapter 19
01:35:49.702                             : Chapter 20
01:40:32.693                             : Chapter 21
01:44:02.194                             : Chapter 22
01:46:56.911                             : Chapter 23
01:49:55.005                             : Chapter 24
Menu #2
ID                                       : 9
Codec ID                                 : text
Duration                                 : 1h 55mn
Language                                 : English
Encoded date                             : UTC 2018-02-22 10:00:39
Tagged date                              : UTC 2018-02-22 10:00:39
Menu For                                 : 1
00:00:00.000                             : Chapter 1
00:05:42.092                             : Chapter 2
00:08:56.911                             : Chapter 3
00:12:50.019                             : Chapter 4
00:19:46.644                             : Chapter 5
00:23:43.547                             : Chapter 6
00:27:36.363                             : Chapter 7
00:31:35.769                             : Chapter 8
00:35:08.690                             : Chapter 9
00:40:54.827                             : Chapter 10
00:44:35.715                             : Chapter 11
00:49:18.789                             : Chapter 12
00:55:35.916                             : Chapter 13
00:59:56.134                             : Chapter 14
01:04:09.888                             : Chapter 15
01:10:55.293                             : Chapter 16
01:15:36.699                             : Chapter 17
01:23:08.734                             : Chapter 18
01:27:24.489                             : Chapter 19
01:35:49.702                             : Chapter 20
01:40:32.693                             : Chapter 21
01:44:02.194                             : Chapter 22
01:46:56.911                             : Chapter 23
01:49:55.005                             : Chapter 24
Bit rate mode                            : VBR

Код:
Код:
x264 [info]: frame I:1697  Avg QP:13.37  size: 36245
x264 [info]: frame P:164237 Avg QP:15.78  size:  6458
x264 [info]: mb I  I16..4: 19.9%  0.0% 80.1%
x264 [info]: mb P  I16..4:  0.6%  0.0%  2.1%  P16..4: 44.4% 22.4%  8.8%  0.0%  0.0%    skip:21.7%
x264 [info]: coded y,uvDC,uvAC intra: 70.2% 86.2% 74.1% inter: 24.0% 21.1% 8.4%
x264 [info]: i16 v,h,dc,p: 52% 13%  9% 26%
x264 [info]: i4 v,h,dc,ddl,ddr,vr,hd,vl,hu: 40% 13% 12%  5%  6%  8%  5%  7%  4%
x264 [info]: i8c dc,h,v,p: 46% 16% 29%  9%
x264 [info]: ref P L0: 69.2% 30.8%
x264 [info]: kb/s:1297.12




Релиз подготовлен для просмотра на Apple TV, iPad, iPhone, iPod Touch.
Для просмотра данного релиза на компьютере с ОС Windows рекомендуется использовать VLC media player
загрузка...
Правила, инструкции, FAQ!!!
Торрент  Добавлен [08 мар 2018, 09:23] Скачать торрент Магнет ссылка
Скачать торрент
[ Размер 27.63 КБ / Просмотров 365 ]

Статус
Проверен 
 
Размер  1.36 ГБ
Приватный: Нет (DHT включён)
.torrent скачан  17
Как залить торрент? | Как скачать Torrent? | Ошибка в торренте? Качайте магнет  


     Отправить личное сообщение
   
Страница 1 из 1
Показать сообщения за:  Поле сортировки  
Начать новую тему Ответить на тему

   Похожие торренты   Автор   Ответы   Просмотры   Последнее сообщение 
В этой теме нет новых непрочитанных сообщений. Скачать торрент Проверен [iPad] Три билборда на границе Эббинга, Миссури / Three Billboards Outside Ebbing, Missouri (Мартин МакДона / Martin McDonagh ) [2017, США, Драма, криминал, BDRip, SD (576p)] DUB + Original + sub (rus, eng, ukr)

в форуме Фильмы для iPod, iPhone, iPad, Размер: 2.08 ГБ, Здоровье: 100%

Anonymous

0
148|12

205
7

08 мар 2018, 09:23

Anonymous Перейти к последнему сообщению

В этой теме нет новых непрочитанных сообщений. Скачать торрент Проверен Три билборда на границе Эббинга, Миссури / Three Billboards Outside Ebbing, Missouri (Мартин МакДона / Martin McDonagh) [2017, Великобритания, США, Криминал, Драма, DVDScreener] Original Eng + Rus Sub (FOCS) + Eng Sub

в форуме Фильмы 2016-2017, Размер: 1.41 ГБ, Здоровье: 100%

Anonymous

0
68|22

129
1

04 фев 2018, 15:09

Anonymous Перейти к последнему сообщению

В этой теме нет новых непрочитанных сообщений. Скачать торрент Проверен Три билборда на границе Эббинга, Миссури / Three Billboards Outside Ebbing, Missouri (2017) BDRip 720p | D, A

в форуме 720p | 1080p, Размер: 6.68 ГБ, Здоровье: 100%

Гость

0
355|21

167
380

17 фев 2018, 20:34

Гость Перейти к последнему сообщению

В этой теме нет новых непрочитанных сообщений. Скачать торрент Проверен [iPad] Семь психопатов / Seven Psychopaths (Мартин МакДона / Martin McDonagh ) [2012, Великобритания, Комедия, криминал, BDRip, SD (576p)] DUB + Original + sub (rus, eng)

в форуме Фильмы для iPod, iPhone, iPad, Размер: 1.89 ГБ, Здоровье: 100%

Anonymous

0
19|6

63
2

24 дек 2017, 22:51

Anonymous Перейти к последнему сообщению

В этой теме нет новых непрочитанных сообщений. Скачать торрент Проверен Казино / Casino (Мартин Скорсезе / Martin Scorsese) [1995, США, Франция, драма, криминал, биография, BDRip, SD (480p)] DVO, Original + sub (rus, eng)

в форуме Фильмы для iPod, iPhone, iPad, Размер: 2.66 ГБ, Здоровье: 100%

Anonymous

0
8|2

3263
0

24 дек 2017, 22:07

Anonymous Перейти к последнему сообщению



Сейчас этот форум просматривают: нет зарегистрированных пользователей и гости: 0


Вы не можете начинать темы
Вы не можете отвечать на сообщения
Вы не можете редактировать свои сообщения
Вы не можете удалять свои сообщения
Вы не можете добавлять вложения

Перейти:  
Ресурс не предоставляет электронные версии произведений, а занимается лишь коллекционированием и каталогизацией ссылок, присылаемых и публикуемых на форуме нашими читателями. Если вы являетесь правообладателем какого-либо представленного материала и не желаете чтобы ссылка на него находилась в нашем каталоге, свяжитесь с нами и мы незамедлительно удалим её. Файлы для обмена на трекере предоставлены пользователями сайта, и администрация не несёт ответственности за их содержание. Просьба не заливать файлы, защищенные авторскими правами, а также файлы нелегального содержания!
cron