На всех торрентах на трекере установлена скидка на скачивание в размере 100 процентов(а).
 Возможность скачивания торрента НЕ зависит от ограничений при низком ратио, низком аплоаде, требуемом ратио или требуемом аплоаде.


Начать новую тему Ответить на тему
Статистика раздачи
Размер: 13.1 ГБ | Добавлен: 03 янв 2013, 13:32 | Скачали: 0
Сидеров: 1  [0 байт/сек]    Личеров: 0  [0 байт/сек]
Пред. тема | След. тема 

Автор
Сообщение

СообщениеДобавлено: 03 янв 2013, 13:32 

Ответить с цитатой 

Название: Трансформеры: Трилогия
Оригинальное название: Transformers: Trilogy
Год выхода: 2007-2011
Жанр: фантастика, боевик, приключения
Продолжительность: 02:23:27 | 02:30:24 | 02:34:23





Название: Трансформеры
Год выхода: 2007
Жанр: фантастика, боевик, приключения
Режиссер: Майкл Бэй
В ролях: Шайа ЛаБаф, Меган Фокс, Джош Дюамель, Тайриз Гибсон, Рэйчел Тейлор, Энтони Андерсон, Джон Войт, Джон Туртурро, Майкл О’Нил, Кевин Данн

О фильме: В течение многих столетий две расы роботов-инопланетян — Автоботы и Десептиконы — вели войну, ставкой в которой была судьба Bселенной. И вот война докатилась до Земли. В то время, когда силы зла ищут ключ к верховной власти, наш последний шанс на спасение находится в руках юного землянина. Единственное, что стоит между несущими зло Десептиконами и высшей властью — это ключ, находящийся в руках простого парнишки. Обычный подросток, Сэм Уитвикки озабочен повседневными хлопотами — школа, друзья, машины, девочки. Не ведая о том, что он является последним шансом человечества на спасение, Сэм вместе со своей подругой Микаэлой оказывается вовлеченным в противостояние Автоботов и Десептиконов. Только тогда Сэм понимает истинное значение семейного девиза Уитвикки — «без жертв нет победы!»

Продолжительность: 02:23:27
Перевод: Профессиональный (полное дублирование)
Выпущено: США
Субтитры: Русские (надписи и пр.)




Качество: BDRip [720p]
Видео: 1280x528, 3973 Кбит/сек, 23,976 кадр/сек, AVC, x264, 2,40:1, 0.245 Бит[ПикселиКадры], 2pass
Аудио: AC-3, 384 Кбит/сек, 6 канала(ов), 48,0 КГц


Размер: 4,37 Гб



Общее
Уникальный идентификатор : 186635145005592930457741056623740470136 (0x8C689F16F6718101992DBE6C5B444378)
Полное имя : E:ЗагрузкиTransformers.Trilogy.2007-2011.BDRip.720p.DUBTransformers.2007.x264.BDRip.720p.DUB.mkv
Формат : Matroska
Версия формата : Version 2
Размер файла : 4,37 Гбайт
Продолжительность : 2 ч. 23 м.
Общий поток : 4358 Кбит/сек
Дата кодирования : UTC 2012-09-25 19:42:17
Программа кодирования : mkvmerge v5.5.0 ('Healer') built on Apr 6 2012 21:43:24
Библиотека кодирования : libebml v1.2.3 + libmatroska v1.3.0

Видео
Идентификатор : 1
Формат : AVC
Формат/Информация : Advanced Video Codec
Профиль формата : High@L3.1
Параметр CABAC формата : Да
Параметр ReFrames формата : 4 кадра
Идентификатор кодека : V_MPEG4/ISO/AVC
Продолжительность : 2 ч. 23 м.
Битрейт : 3973 Кбит/сек
Ширина : 1280 пикселей
Высота : 528 пикселей
Соотношение сторон : 2,40:1
Соотношение сторон в оригинале : 2,40:1
Частота кадров : 23,976 кадра/сек
Цветовое пространство : YUV
Субдискретизация насыщенности : 4:2:0
Битовая глубина : 8 бит
Тип развёртки : Прогрессивная
Бит/(Пиксели*Кадры) : 0.245
Размер потока : 3,90 Гбайт (89%)
Заголовок : Трансформеры
Библиотека кодирования : x264 core 128 r2216 198a7ea
Настройки программы : cabac=1 / ref=3 / deblock=1:0:0 / analyse=0x3:0x133 / me=hex / subme=7 / psy=1 / psy_rd=1.00:0.00 / mixed_ref=1 / me_range=16 / chroma_me=1 / trellis=1 / 8x8dct=1 / cqm=0 / deadzone=21,11 / fast_pskip=1 / chroma_qp_offset=-2 / threads=12 / lookahead_threads=2 / sliced_threads=0 / nr=0 / decimate=1 / interlaced=0 / bluray_compat=0 / constrained_intra=0 / bframes=3 / b_pyramid=2 / b_adapt=1 / b_bias=0 / direct=1 / weightb=1 / open_gop=0 / weightp=2 / keyint=240 / keyint_min=23 / scenecut=40 / intra_refresh=0 / rc_lookahead=40 / rc=2pass / mbtree=1 / bitrate=3973 / ratetol=1.0 / qcomp=0.60 / qpmin=0 / qpmax=69 / qpstep=4 / cplxblur=20.0 / qblur=0.5 / ip_ratio=1.40 / aq=1:1.00
Язык : English
Default : Да
Forced : Нет

Аудио
Идентификатор : 2
Формат : AC-3
Формат/Информация : Audio Coding 3
Расширение режима : CM (complete main)
Идентификатор кодека : A_AC3
Продолжительность : 2 ч. 23 м.
Вид битрейта : Постоянный
Битрейт : 384 Кбит/сек
Каналы : 6 каналов
Расположение каналов : Front: L C R, Side: L R, LFE
Частота : 48,0 КГц
Битовая глубина : 16 бит
Метод сжатия : С потерями
Размер потока : 394 Мбайт (9%)
Заголовок : Профессиональный (полное дублирование)
Язык : Russian
Default : Да
Forced : Нет

Текст
Идентификатор : 3
Формат : UTF-8
Идентификатор кодека : S_TEXT/UTF8
Идентификатор кодека/Информация : UTF-8 Plain Text
Заголовок : Русские (надписи и пр.)
Язык : Russian
Default : Да
Forced : Нет



Название: Трансформеры: Месть падших
Год выхода: 2009
Жанр: фантастика, боевик, приключения
Режиссер: Майкл Бэй

В ролях: Шайа ЛаБаф, Меган Фокс, Изабель Лукас, Джош Дюамель, Хьюго Уивинг, Майкл Пападжон, Джон Туртурро, Америка Оливо, Рэйн Уилсон, Фрэнк Уэлкер

О фильме: Прошло два года с тех пор, как юный Сэм Уитвикки спас Вселенную, предотвратив глобальную битву между враждующими воинственными расами инопланетных роботов. Несмотря на свои героические подвиги, Сэм остается обычным подростком с обычными проблемами — поступление в колледж и родителями. Разумеется, отъезд будет тяжело воспринят лучшим другом, роботом.

Продолжительность: 02:30:24
Перевод: Профессиональный (полное дублирование)
Выпущено: США




Качество: BDRip [720p]
Видео: 1280x528, 3707 Кбит/сек, 23,976 кадр/сек, AVC, x264, 2,40:1, 0.229 Бит[ПикселиКадры], 2pass
Аудио: AC-3, 448 Кбит/сек, 6 канала(ов), 48,0 КГц

Размер: 4,37 Гб



Общее
Уникальный идентификатор : 188217678139260260326090270913051599719 (0x8D9967FF49DDE884B398B2B109D5A367)
Полное имя : E:ЗагрузкиTransformers.Trilogy.2007-2011.BDRip.720p.DUBTransformers.Revenge.of.the.Fallen.2009.x264.BDRip.720p.DUB.mkv
Формат : Matroska
Версия формата : Version 2
Размер файла : 4,37 Гбайт
Продолжительность : 2 ч. 30 м.
Общий поток : 4155 Кбит/сек
Дата кодирования : UTC 2012-09-25 20:02:10
Программа кодирования : mkvmerge v5.5.0 ('Healer') built on Apr 6 2012 21:43:24
Библиотека кодирования : libebml v1.2.3 + libmatroska v1.3.0

Видео
Идентификатор : 1
Формат : AVC
Формат/Информация : Advanced Video Codec
Профиль формата : High@L3.1
Параметр CABAC формата : Да
Параметр ReFrames формата : 4 кадра
Идентификатор кодека : V_MPEG4/ISO/AVC
Продолжительность : 2 ч. 30 м.
Битрейт : 3707 Кбит/сек
Ширина : 1280 пикселей
Высота : 528 пикселей
Соотношение сторон : 2,40:1
Соотношение сторон в оригинале : 2,40:1
Частота кадров : 23,976 кадра/сек
Цветовое пространство : YUV
Субдискретизация насыщенности : 4:2:0
Битовая глубина : 8 бит
Тип развёртки : Прогрессивная
Бит/(Пиксели*Кадры) : 0.229
Размер потока : 3,81 Гбайт (87%)
Заголовок : Трансформеры: Месть падших
Библиотека кодирования : x264 core 128 r2216 198a7ea
Настройки программы : cabac=1 / ref=3 / deblock=1:0:0 / analyse=0x3:0x133 / me=hex / subme=7 / psy=1 / psy_rd=1.00:0.00 / mixed_ref=1 / me_range=16 / chroma_me=1 / trellis=1 / 8x8dct=1 / cqm=0 / deadzone=21,11 / fast_pskip=1 / chroma_qp_offset=-2 / threads=12 / lookahead_threads=2 / sliced_threads=0 / nr=0 / decimate=1 / interlaced=0 / bluray_compat=0 / constrained_intra=0 / bframes=3 / b_pyramid=2 / b_adapt=1 / b_bias=0 / direct=1 / weightb=1 / open_gop=0 / weightp=2 / keyint=240 / keyint_min=23 / scenecut=40 / intra_refresh=0 / rc_lookahead=40 / rc=2pass / mbtree=1 / bitrate=3707 / ratetol=1.0 / qcomp=0.60 / qpmin=0 / qpmax=69 / qpstep=4 / cplxblur=20.0 / qblur=0.5 / ip_ratio=1.40 / aq=1:1.00
Язык : English
Default : Да
Forced : Нет

Аудио
Идентификатор : 2
Формат : AC-3
Формат/Информация : Audio Coding 3
Расширение режима : CM (complete main)
Идентификатор кодека : A_AC3
Продолжительность : 2 ч. 30 м.
Вид битрейта : Постоянный
Битрейт : 448 Кбит/сек
Каналы : 6 каналов
Расположение каналов : Front: L C R, Side: L R, LFE
Частота : 48,0 КГц
Битовая глубина : 16 бит
Метод сжатия : С потерями
Размер потока : 482 Мбайт (11%)
Заголовок : Профессиональный (полное дублирование) (с лицензии)
Язык : Russian
Default : Да
Forced : Нет



Название: Трансформеры 3: Тёмная сторона Луны
Год выхода: 2011
Жанр: фантастика, боевик, приключения
Режиссер: Майкл Бэй

В ролях: Шайа ЛаБаф, Джош Дюамель, Джон Туртурро, Тайриз Гибсон, Роузи Хантингтон-Уайтли, Патрик Демпси, Кевин Данн, Джули Уайт, Джон Малкович, Питер Каллен, Хьюго Уивинг, Леонард Нимой, Фрэнсис МакДорманд, Алан Тьюдик, Кен Жонг

О фильме: Для наших героев наступили печальные будни: Сэм потерял Микаэлу, правительство выпускает законодательный акт о выселении Автоботов с Земли, а пока Мегатрон скрывается после позорного поражения Фоллена, десептикон Шокуэйв, правитель Кибертрона, готовится нанести визит нашей планете с совсем не добрыми намерениями. Действие заключительной части трилогии на этот раз охватит не только Землю, но и Луну, темная сторона которой хранит не менее темные тайны.

Продолжительность: 02:34:23
Перевод: Профессиональный (полное дублирование)
Выпущено: США
Субтитры: Русские (надписи и пр.)




Качество: BDRip [720p]
Видео: 1280x528, 3664 Кбит/сек, 23,976 кадр/сек, AVC, x264, 2,40:1, 0.226 Бит[ПикселиКадры], 2pass
Аудио: AC-3, 384 Кбит/сек, 6 канала(ов), 48,0 КГц



Размер: 4,37 Гб



Общее
Уникальный идентификатор : 185434525820906673842749640725089162254 (0x8B8163FE5F79CF3CAFAC395383A3140E)
Полное имя : E:ЗагрузкиTransformers.Trilogy.2007-2011.BDRip.720p.DUBTransformers.Dark.of.the.Moon.2011.x264.BDRip.720p.DUB.mkv
Формат : Matroska
Версия формата : Version 2
Размер файла : 4,37 Гбайт
Продолжительность : 2 ч. 34 м.
Общий поток : 4049 Кбит/сек
Дата кодирования : UTC 2012-09-25 19:51:48
Программа кодирования : mkvmerge v5.5.0 ('Healer') built on Apr 6 2012 21:43:24
Библиотека кодирования : libebml v1.2.3 + libmatroska v1.3.0

Видео
Идентификатор : 1
Формат : AVC
Формат/Информация : Advanced Video Codec
Профиль формата : High@L3.1
Параметр CABAC формата : Да
Параметр ReFrames формата : 4 кадра
Идентификатор кодека : V_MPEG4/ISO/AVC
Продолжительность : 2 ч. 34 м.
Битрейт : 3664 Кбит/сек
Ширина : 1280 пикселей
Высота : 528 пикселей
Соотношение сторон : 2,40:1
Соотношение сторон в оригинале : 2,40:1
Частота кадров : 23,976 кадра/сек
Цветовое пространство : YUV
Субдискретизация насыщенности : 4:2:0
Битовая глубина : 8 бит
Тип развёртки : Прогрессивная
Бит/(Пиксели*Кадры) : 0.226
Размер потока : 3,87 Гбайт (89%)
Заголовок : Трансформеры 3: Тёмная сторона Луны
Библиотека кодирования : x264 core 128 r2216 198a7ea
Настройки программы : cabac=1 / ref=3 / deblock=1:0:0 / analyse=0x3:0x133 / me=hex / subme=7 / psy=1 / psy_rd=1.00:0.00 / mixed_ref=1 / me_range=16 / chroma_me=1 / trellis=1 / 8x8dct=1 / cqm=0 / deadzone=21,11 / fast_pskip=1 / chroma_qp_offset=-2 / threads=12 / lookahead_threads=2 / sliced_threads=0 / nr=0 / decimate=1 / interlaced=0 / bluray_compat=0 / constrained_intra=0 / bframes=3 / b_pyramid=2 / b_adapt=1 / b_bias=0 / direct=1 / weightb=1 / open_gop=0 / weightp=2 / keyint=240 / keyint_min=23 / scenecut=40 / intra_refresh=0 / rc_lookahead=40 / rc=2pass / mbtree=1 / bitrate=3664 / ratetol=1.0 / qcomp=0.60 / qpmin=0 / qpmax=69 / qpstep=4 / cplxblur=20.0 / qblur=0.5 / ip_ratio=1.40 / aq=1:1.00
Язык : English
Default : Да
Forced : Нет

Аудио
Идентификатор : 2
Формат : AC-3
Формат/Информация : Audio Coding 3
Расширение режима : CM (complete main)
Идентификатор кодека : A_AC3
Продолжительность : 2 ч. 34 м.
Вид битрейта : Постоянный
Битрейт : 384 Кбит/сек
Каналы : 6 каналов
Расположение каналов : Front: L C R, Side: L R, LFE
Частота : 48,0 КГц
Битовая глубина : 16 бит
Метод сжатия : С потерями
Размер потока : 424 Мбайт (9%)
Заголовок : Дублированный [лицензия]
Язык : Russian
Default : Да
Forced : Нет

Текст
Идентификатор : 3
Формат : UTF-8
Идентификатор кодека : S_TEXT/UTF8
Идентификатор кодека/Информация : UTF-8 Plain Text
Заголовок : русские [forced]
Язык : Russian
Default : Да
Forced : Нет
загрузка...
Правила, инструкции, FAQ!!!
Торрент  Добавлен [03 янв 2013, 13:32] Скачать торрент Магнет ссылка
Скачать торрент
[ Размер 33.58 КБ / Просмотров 21 ]

Статус
Проверен 
 
Размер  13.1 ГБ
Приватный: Нет (DHT включён)
.torrent скачан  0
Как залить торрент? | Как скачать Torrent? | Ошибка в торренте? Качайте магнет  


     Отправить личное сообщение
   
Страница 1 из 1
Показать сообщения за:  Поле сортировки  
Начать новую тему Ответить на тему

   Похожие торренты   Автор   Ответы   Просмотры   Последнее сообщение 
В этой теме нет новых непрочитанных сообщений. Скачать торрент Трансформеры. Трилогия / Transformers. Trilogy (Майкл Бэй / Michael Bay) [2007-2011, США, фантастика, боевик, HDRip, 480p] Dub + Original + sub (rus, eng)

в форуме Фильмы для iPod, iPhone, iPad, Размер: 6.46 ГБ, Здоровье: 100%

Anonymous

0
23|13

200
2

28 сен 2013, 12:25

Anonymous Перейти к последнему сообщению

В этой теме нет новых непрочитанных сообщений. Трансформеры: Эпоха истребления / Transformers: Age of Extinction (2014) BDRip 720p | Чистый звук

в форуме Новинки кино, Размер: 9.25 ГБ, Здоровье: 100%

Anonymous

0
2|1

528
0

20 сен 2014, 13:36

Anonymous Перейти к последнему сообщению

В этой теме нет новых непрочитанных сообщений. Скачать торрент Проверен Час пик : Трилогия / Rush Hour : Trilogy (1998-2007) BDRip 720p | 60 fps

в форуме Трилогии, Размер: 11.24 ГБ, Здоровье: 100%

Гость

0
159|63

1083
421

15 ноя 2015, 23:58

Гость Перейти к последнему сообщению

В этой теме нет новых непрочитанных сообщений. Скачать торрент Проверен [iPad] Борн: Трилогия / The Bourne Trilogy [2002, 2004, 2007, Боевик, триллер, приключения, детектив, BDRip, 720p] DUB, Гаврилов, ENG + Rus / Eng sub

в форуме Фильмы для iPod, iPhone, iPad, Размер: 8.05 ГБ, Здоровье: 100%

Гость

0
30|10

249
1

11 май 2015, 01:30

Гость Перейти к последнему сообщению

В этой теме нет новых непрочитанных сообщений. Скачать торрент Проверен Библиотекарь: Трилогия / The Librarian: Trilogy (2004-2008) BDRip 720p

в форуме Трилогии, Размер: 14.33 ГБ, Здоровье: 100%

Anonymous

0
111|44

381
162

27 окт 2014, 17:56

Anonymous Перейти к последнему сообщению



Сейчас этот форум просматривают: нет зарегистрированных пользователей и гости: 0


Вы не можете начинать темы
Вы не можете отвечать на сообщения
Вы не можете редактировать свои сообщения
Вы не можете удалять свои сообщения
Вы не можете добавлять вложения

Перейти:  
Ресурс не предоставляет электронные версии произведений, а занимается лишь коллекционированием и каталогизацией ссылок, присылаемых и публикуемых на форуме нашими читателями. Если вы являетесь правообладателем какого-либо представленного материала и не желаете чтобы ссылка на него находилась в нашем каталоге, свяжитесь с нами и мы незамедлительно удалим её. Файлы для обмена на трекере предоставлены пользователями сайта, и администрация не несёт ответственности за их содержание. Просьба не заливать файлы, защищенные авторскими правами, а также файлы нелегального содержания!
cron