На всех торрентах на трекере установлена скидка на скачивание в размере 100 процентов(а).
 Возможность скачивания торрента НЕ зависит от ограничений при низком ратио, низком аплоаде, требуемом ратио или требуемом аплоаде.


Начать новую тему Ответить на тему
Статистика раздачи
Размер: 2.05 ГБ | Добавлен: 09 апр 2016, 21:53 | Скачали: 8
Сидеров: 345  [0 байт/сек]    Личеров: 22  [0 байт/сек]
Пред. тема | След. тема 

Автор
Сообщение

СообщениеДобавлено: 09 апр 2016, 21:53 

Ответить с цитатой 

Страна: СССР
Жанр: Комическая фантазия
Режиссер: Марк Захаров
Актеры: Олег Янковский, Инна Чурикова, Елена Коренева, Игорь Кваша, Александр Абдулов, Леонид Ярмольник, Юрий Катин-Ярцев, Владимир Долинский,
Леонид Броневой, Семен Фарада, Всеволод Ларионов, А. Амаслюрянц, Игорь Ясулович, Анатолий Скорякин.

Описание:
*Полная реставрация изображения и звука - "КП"*

«Я понял, в чем ваша беда: вы слишком серьезны. Умное лицо — это еще не признак ума, господа.
Все глупости на земле делаются именно с этим выражением лица»
.

Комическая фантазия о жизни, любви и смерти знаменитого барона Мюнхгаузена, жившего в XVIII веке и ставшего героем многих веселых книг и преданий.
Этот фильм - не экранизация романа Д.Распэ, а оригинальное произведение наших талантливых современников.

Барон хочет жениться на любимой им Марте, но церковь отказывается обвенчать их, так как имеется живая жена, «усмирявшая его 20 лет».
Уставшая Марта хочет, чтобы барон стал таким, как все, но барон этого не хочет, да и не может.
Герцог разрешит брак только в том случае, если барон письменно подтвердит, что все его истории лживы, а он сам — обыкновенный человек...


Продолжительность: 02:14:07 (двухсерийный)
Перевод: Оригинальный
Видеокодек: Xvid
Битрейт видео: ~1736 Kb/s, 25 fps, 0.19 bit/pixel
Размер кадра: 704x528 (1.33:1)
Качество видео: DVDRip
Аудиокодек: AC3
Битрейт аудио: 448 Kb/s, 6Ch
Респект за ДВД: Stalker
Рип: Modus Vivendi
Время раздачи: 24/7 {40 - 100 KB/s}
Формат : AVI
Формат/Информация : Audio Video Interleave
Профиль формата : OpenDML
Размер файла : 2,05 Гбайт
Продолжительность : 2 ч. 14 м.
Общий поток : 2192 Кбит/сек
Программа кодирования : VirtualDubMod 1.5.10.2 (build 2540/release)
Библиотека кодирования : VirtualDubMod build 2540/release

Видео
Идентификатор : 0
Формат : MPEG-4 Visual
Профиль формата : Advanced Simple@L5
Параметр BVOP формата : 2
Параметр QPel формата : Нет
Параметр GMC формата : Без точки перехода
Параметр матрицы формата : Default (H.263)
Идентификатор кодека : XVID
Идентификатор кодека/Подсказка : XviD
Продолжительность : 2 ч. 14 м.
Битрейт : 1731 Кбит/сек
Ширина : 704 пикс.
Высота : 528 пикс.
Соотношение сторон : 4:3
Частота кадров : 25,000 кадр/сек
Цветовое пространство : YUV
Подвыборка цветности : 4:2:0
Битовая глубина : 8 бит
Тип развёртки : Прогрессивная
Метод сжатия : С потерями
Бит/(Пиксели*Кадры) : 0.186
Размер потока : 1,62 Гбайт (79%)
Библиотека кодирования : XviD 1.2.1 (UTC 2008-12-04)

Аудио
Идентификатор : 1
Формат : AC-3
Формат/Информация : Audio Coding 3
Расширение режима : CM (complete main)
Идентификатор кодека : 2000
Продолжительность : 2 ч. 14 м.
Вид битрейта : Постоянный
Битрейт : 448 Кбит/сек
Каналы : 6 каналов
Расположение каналов : Front: L C R, Side: L R, LFE
Частота : 48,0 КГц
Битовая глубина : 16 бит
Метод сжатия : С потерями
Размер потока : 430 Мбайт (20%)
Выравнивание : Разделение по промежуткам
Продолжительность промежутка : 40 мс. (1,00 видеокадр)
Время предзагрузки промежутка : 500 ms


Скриншоты:
[center]
загрузка...
Правила, инструкции, FAQ!!!
Торрент  Добавлен [09 апр 2016, 21:53] Скачать торрент Магнет ссылка
Скачать торрент
[ Размер 11.01 КБ / Просмотров 62 ]

Статус
Проверен 
 
Размер  2.05 ГБ
Приватный: Нет (DHT включён)
.torrent скачан  8
Как залить торрент? | Как скачать Torrent? | Ошибка в торренте? Качайте магнет  


     Отправить личное сообщение
   
Страница 1 из 1
Показать сообщения за:  Поле сортировки  
Начать новую тему Ответить на тему

   Похожие торренты   Автор   Ответы   Просмотры   Последнее сообщение 
В этой теме нет новых непрочитанных сообщений. Скачать торрент Проверен Барон Мюнхгаузен. Сборник мультфильмов (1973-1987) DVDRip [Приключения Мюнхгаузена, Следствие ведут колобки, Раз ковбой, два ковбой]

в форуме Отечественные мультфильмы, Размер: 900.87 МБ, Здоровье: 100%

Anonymous

0
35|5

546
5

18 июл 2014, 21:01

Anonymous Перейти к последнему сообщению

В этой теме нет новых непрочитанных сообщений. Скачать торрент Проверен Разные судьбы (1956) DVDRip [реставрация]

в форуме Драмы, Мелодрамы, Размер: 2.14 ГБ, Здоровье: 100%

Anonymous

0
6|2

231
0

05 июл 2014, 23:35

Anonymous Перейти к последнему сообщению

В этой теме нет новых непрочитанных сообщений. Скачать торрент Проверен Освобождение (1968-1971) [Реставрация КП] DVDRip

в форуме Военные, Размер: 6.87 ГБ, Здоровье: 100%

Anonymous

0
62|6

432
4

05 июл 2014, 23:36

Anonymous Перейти к последнему сообщению

В этой теме нет новых непрочитанных сообщений. Скачать торрент Проверен Битва за Москву (1985) DVDRip [H.264] [Реставрация]

в форуме Военные, Размер: 7 ГБ, Здоровье: 100%

Anonymous

0
69|4

485
8

05 июл 2014, 23:36

Anonymous Перейти к последнему сообщению

В этой теме нет новых непрочитанных сообщений. Скачать торрент Проверен Аты-баты, шли солдаты... (1976) DVDRip <Реставрация>

в форуме Военные, Размер: 1.37 ГБ, Здоровье: 81%

Anonymous

0
35|43

182
0

05 июл 2014, 23:34

Anonymous Перейти к последнему сообщению



Сейчас этот форум просматривают: нет зарегистрированных пользователей и гости: 2


Вы не можете начинать темы
Вы не можете отвечать на сообщения
Вы не можете редактировать свои сообщения
Вы не можете удалять свои сообщения
Вы не можете добавлять вложения

Перейти:  
Ресурс не предоставляет электронные версии произведений, а занимается лишь коллекционированием и каталогизацией ссылок, присылаемых и публикуемых на форуме нашими читателями. Если вы являетесь правообладателем какого-либо представленного материала и не желаете чтобы ссылка на него находилась в нашем каталоге, свяжитесь с нами и мы незамедлительно удалим её. Файлы для обмена на трекере предоставлены пользователями сайта, и администрация не несёт ответственности за их содержание. Просьба не заливать файлы, защищенные авторскими правами, а также файлы нелегального содержания!
cron