На всех торрентах на трекере установлена скидка на скачивание в размере 100 процентов(а).
 Возможность скачивания торрента НЕ зависит от ограничений при низком ратио, низком аплоаде, требуемом ратио или требуемом аплоаде.


Начать новую тему Ответить на тему
Статистика раздачи
Размер: 1.42 ГБ | Добавлен: 18 авг 2016, 15:23 | Скачали: 18
Сидеров: 33  [0 байт/сек]    Личеров: 65  [0 байт/сек]
Пред. тема | След. тема 

Автор
Сообщение

СообщениеДобавлено: 18 авг 2016, 15:23 

Название: Финансовый монстр
Оригинальное название: Money Monster
Год выхода: 2016
Жанр: Триллер, драма, криминал
Режиссер: Джоди Фостер
В ролях: Джордж Клуни, Джулия Робертс, Джек О`Коннелл, Доминик Уэст, Катрина Балф, Джанкарло Эспозито, Кристофер Денэм, Ленни Венито, Кристофер Бауэр, Дэннис Буцикарис

О фильме:
Во время трансляции рейтингового реалити-шоу «Финансовый монстр» в студию врывается неизвестный и берет ведущего в заложники. Несмотря на чрезвычайную ситуацию, программа не прерывается – ведь шоу должно продолжаться! Постепенно то, что начиналось как мрачная драма, превращается в самый успешный и скандальный выпуск реалити-шоу за всю его историю.


Страна: США
Студия: Allegiance Theater, LStar Capital, Smoke House, TriStar Pictures
Продолжительность: 01:38:07
Перевод: Профессиональный (полное дублирование) | iTunes


Кодек: XviD
Качество: BDRip
Видео: 720x304 (2.35:1), 23.976 fps, XviD Build 73, 1661 kbps avg, 0.317 bit/pixel
Аудио: 48.0 kHz, AC3 Dolby Digital, 5/1 (L C R, Side: L R, LFE) ch, 384 kbps

General
Complete name : Fin.Monstr.2016.XviD.1.45Gb.BDRip.by.GeneralFilm.avi
Format : AVI
Format/Info : Audio Video Interleave
File size : 1.42 GiB
Duration : 1h 38mn
Overall bit rate : 2 054 Kbps
Writing application : VirtualDubMod 1.5.10.3 | http://www.virtualdub-fr.org || (build 2550/release)
Writing library : VirtualDubMod build 2550/release

Video
ID : 0
Format : MPEG-4 Visual
Format profile : Advanced Simple@L5
Format settings, BVOP : 1
Format settings, QPel : No
Format settings, GMC : No warppoints
Format settings, Matrix : Custom
Codec ID : XVID
Codec ID/Hint : XviD
Duration : 1h 38mn
Bit rate : 1 661 Kbps
Width : 720 pixels
Height : 304 pixels
Display aspect ratio : 2.35:1
Frame rate : 23.976 (23976/1000) fps
Color space : YUV
Chroma subsampling : 4:2:0
Bit depth : 8 bits
Scan type : Progressive
Compression mode : Lossy
Bits/(Pixel*Frame) : 0.317
Stream size : 1.14 GiB (81%)
Writing library : XviD 73

Audio
ID : 1
Format : AC-3
Format/Info : Audio Coding 3
Mode extension : CM (complete main)
Format settings, Endianness : Big
Codec ID : 2000
Duration : 1h 38mn
Bit rate mode : Constant
Bit rate : 384 Kbps
Channel(s) : 6 channels
Channel positions : Front: L C R, Side: L R, LFE
Sampling rate : 48.0 KHz
Frame rate : 31.250 fps (1536 spf)
Compression mode : Lossy
Delay relative to video : 960ms
Stream size : 271 MiB (19%)
Alignment : Split accross interleaves
Interleave, duration : 42 ms (1.00 video frame)
Interleave, preload duratio : 500 ms






Релиз от:

Исходник: Money.Monster.2016.D.BDREMUX.1080p
загрузка...
Правила, инструкции, FAQ!!!
Торрент  Добавлен [18 авг 2016, 15:23] Скачать торрент
Скачать торрент
[ Размер 14.95 КБ / Просмотров 55 ]

Статус
Проверен 
 
Размер  1.42 ГБ
Приватный: Нет (DHT включён)
.torrent скачан  18
Как залить торрент? | Как скачать Torrent? | Как смотреть и слушать онлайн?  


     Отправить личное сообщение
   
Страница 1 из 1
Показать сообщения за:  Поле сортировки  
Начать новую тему Ответить на тему

   Похожие торренты   Автор   Ответы   Просмотры   Последнее сообщение 
В этой теме нет новых непрочитанных сообщений. Скачать торрент Проверен Финансовый монстр / Money Monster (2016) BDRip 720p | iTunes

в форуме 720p | 1080p, Размер: 3.98 ГБ, Здоровье: 100%

Гость

0
707|385

152
896

18 авг 2016, 15:29

Гость Перейти к последнему сообщению

В этой теме нет новых непрочитанных сообщений. Скачать торрент Проверен Монстр / Monster (2003) BDRip [H.264/720p]

в форуме 720p | 1080p, Размер: 6.44 ГБ, Здоровье: 100%

Гость

0
38|8

95
18

03 апр 2015, 01:23

Гость Перейти к последнему сообщению

В этой теме нет новых непрочитанных сообщений. Скачать торрент Монстр / Monster (Пэтти Дженкинс / Patty Jenkins) [2003, США, Германия, драма, криминал, биография, BDRip] Dub

в форуме Драмы, Мелодрамы, Размер: 1.46 ГБ, Здоровье: 100%

Anonymous

0
56|19

29
0

25 апр 2014, 08:52

Anonymous Перейти к последнему сообщению

В этой теме нет новых непрочитанных сообщений. Скачать торрент Проверен Дом-монстр в 3Д / Monster House 3D (Гил Кинан / Gil Kenan) [2006, Мультфильм, Фэнтези, Детектив, Семейный, BDrip-AVC] Half OverUnder / Вертикальная анаморфная стереопара

в форуме HD-Video в 3D, Размер: 6.64 ГБ, Здоровье: 100%

Anonymous

0
36|12

66
0

02 ноя 2014, 09:51

Anonymous Перейти к последнему сообщению

В этой теме нет новых непрочитанных сообщений. Скачать торрент Проверен Дом-монстр 3Д / Monster House 3D (Гил Кинан / Gil Kenan) [2006 г., фэнтези, комедия, семейный, мультфильм, детектив, BDRip 1080p] OverUnder / Вертикальная стереопара

в форуме 3D Мультфильмы, Размер: 9.17 ГБ, Здоровье: 0%

Anonymous

0
0|0

8
0

07 сен 2016, 17:34

Anonymous Перейти к последнему сообщению



Сейчас этот форум просматривают: нет зарегистрированных пользователей и гости: 0


Вы не можете начинать темы
Вы не можете отвечать на сообщения
Вы не можете редактировать свои сообщения
Вы не можете удалять свои сообщения
Вы не можете добавлять вложения

Перейти:  

!ВНИМАНИЕ!
 Ресурс не предоставляет электронные версии произведений, а занимается лишь коллекционированием и каталогизацией ссылок, присылаемых и публикуемых на форуме нашими читателями. Если вы являетесь правообладателем какого-либо представленного материала и не желаете чтобы ссылка на него находилась в нашем каталоге, свяжитесь с нами и мы незамедлительно удалим её. Файлы для обмена на трекере предоставлены пользователями сайта, и администрация не несёт ответственности за их содержание. Просьба не заливать файлы, защищенные авторскими правами, а также файлы нелегального содержания!