На всех торрентах на трекере установлена скидка на скачивание в размере 100 процентов(а).
 Возможность скачивания торрента НЕ зависит от ограничений при низком ратио, низком аплоаде, требуемом ратио или требуемом аплоаде.


Начать новую тему Ответить на тему
Статистика раздачи
Размер: 1.44 ГБ | Добавлен: 25 дек 2016, 12:12 | Скачали: 669
Сидеров: 383  [0 байт/сек]    Личеров: 169  [0 байт/сек]
Пред. тема | След. тема 

Автор
Сообщение

СообщениеДобавлено: 25 дек 2016, 12:12 

Название: Полигон 27
Год выхода: 2013
Жанр: Фантастика, постапокалипсис
Режиссёр: Артем Мирошин
В ролях: Виктория Зогий, Никита Мокиев, Егор Медведев, Дмитрий Олейник, Олег Рябков, Олег Марков, Игорь Файман, Алексей Ганзей, Влад Миллер, Максим Перминов

О фильме: Постядерный мир. Среди руин старого города возвышается город — убежище «Новый Хабаровск». В руки молодого парня и девушки попадает важная информация о местоположении технологий, с помощью которых можно восстановить экологию планеты. Оставшись без помощи и поддержки, они вынуждены совершить путешествие к этому месту и раскрыть заговор нависший над городом...



Страна: Россия
Студия:
Продолжительность: 01:19:14
Перевод: Не требуется (оригинальный)


Формат: avi
Качество: WEBDLRip (WEBDL.1080)
Видео: XviD, 720х304, 23.976fps, 2399kbps
Аудио: AC3 Dolby Digital, 2ch, 44100Hz, 192kbps



Общее
Полное имя : Poligon.27.2013.O.WEBDLRip.1400.CurHaJI.avi
Формат : AVI
Формат/Информация : Audio Video Interleave
Размер файла : 1,44 Гбайт
Продолжительность : 1 ч. 19 м.
Общий поток : 2601 Кбит/сек
Название фильма : Poligon.27.2013.O.WEBDLRip.1400.CurHaJI
Программа кодирования : VirtualDubMod 1.5.10.3 | http://www.virtualdub-fr.org || (build 2550/release)
Библиотека кодирования : VirtualDub build 35491/release

Видео
Идентификатор : 0
Формат : MPEG-4 Visual
Профиль формата : Advanced Simple@L5
Параметр BVOP формата : 1
Параметр QPel формата : Нет
Параметр GMC формата : Без точки перехода
Параметр матрицы формата : Выборочная
Идентификатор кодека : XVID
Идентификатор кодека/Подсказка : XviD
Продолжительность : 1 ч. 19 м.
Битрейт : 2399 Кбит/сек
Ширина : 720 пикселей
Высота : 304 пикселя
Соотношение сторон : 2,35:1
Частота кадров : 23,976 (24000/1001) кадра/сек
Цветовое пространство : YUV
Субдискретизация насыщенности : 4:2:0
Битовая глубина : 8 бит
Тип развёртки : Прогрессивная
Метод сжатия : С потерями
Бит/(Пиксели*Кадры) : 0.457
Размер потока : 1,33 Гбайт (92%)
Библиотека кодирования : XviD 73

Аудио
Идентификатор : 1
Формат : AC-3
Формат/Информация : Audio Coding 3
Расширение режима : CM (complete main)
Параметр Endianness формата : Big
Идентификатор кодека : 2000
Продолжительность : 1 ч. 19 м.
Вид битрейта : Постоянный
Битрейт : 192 Кбит/сек
Каналы : 2 канала
Расположение каналов : Front: L R
Частота : 44,1 КГц
Частота кадров : 28,711 кадров/сек (1536 spf)
Битовая глубина : 16 бит
Метод сжатия : С потерями
Размер потока : 109 Мбайт (7%)
Выравнивание : Разделение по промежуткам
Продолжительность промежутка : 42 мс. (1,00 видеокадр)
Время предзагрузки промежутка : 500 мс.



Релиз от:
загрузка...
Правила, инструкции, FAQ!!!
Торрент  Добавлен [25 дек 2016, 12:12] Скачать торрент
Скачать торрент
[ Размер 15.22 КБ / Просмотров 52 ]

Статус
Проверен 
 
Размер  1.44 ГБ
Приватный: Нет (DHT включён)
.torrent скачан  669
Как залить торрент? | Как скачать Torrent? | Как смотреть и слушать онлайн?  


     Отправить личное сообщение
   
Страница 1 из 1
Показать сообщения за:  Поле сортировки  
Начать новую тему Ответить на тему

   Похожие торренты   Автор   Ответы   Просмотры   Последнее сообщение 
В этой теме нет новых непрочитанных сообщений. Скачать торрент Лев Пучков | Полигон смерти (2013) [FB2]

в форуме Фантастика, фэнтези, Размер: 1.1 МБ, Здоровье: ???%

Anonymous

0
0|13

39
0

11 апр 2014, 23:37

Anonymous Перейти к последнему сообщению

В этой теме нет новых непрочитанных сообщений. Скачать торрент Проверен (Шансон) Александр Новиков, Рок-Полигон - Дискография (32 альбома) 87 CD - 1984-2013, MP3, 192-320 kbps

в форуме Шансон|Авторская песня, Размер: 11.48 ГБ, Здоровье: 100%

Anonymous

0
40|12

22
1

05 ноя 2016, 21:19

Anonymous Перейти к последнему сообщению

В этой теме нет новых непрочитанных сообщений. Скачать торрент Проверен В пустыне смерти / Into the Badlands [S01] (2015) WEBDLRip | NewStudio

в форуме Зарубежные сериалы, Размер: 3.18 ГБ, Здоровье: 49%

Anonymous

0
163|331

229
116

22 дек 2015, 19:53

Anonymous Перейти к последнему сообщению

В этой теме нет новых непрочитанных сообщений. Скачать торрент Проверен (Rock) Полигон - Цель - 2007, MP3, 320 kbps

в форуме Русский Рок, Размер: 95.33 МБ, Здоровье: 100%

Anonymous

0
1|0

8
1

21 авг 2016, 14:07

Anonymous Перейти к последнему сообщению

В этой теме нет новых непрочитанных сообщений. Скачать торрент Проверен Иар Эльтеррус | Демиурги. Полигон богов (2014) [FB2]

в форуме Фантастика, фэнтези, Размер: 1.3 МБ, Здоровье: 100%

Anonymous

0
14|3

32
1

05 авг 2014, 08:05

Anonymous Перейти к последнему сообщению



Сейчас этот форум просматривают: нет зарегистрированных пользователей и гости: 0


Вы не можете начинать темы
Вы не можете отвечать на сообщения
Вы не можете редактировать свои сообщения
Вы не можете удалять свои сообщения
Вы не можете добавлять вложения

Перейти:  

!ВНИМАНИЕ!
 Ресурс не предоставляет электронные версии произведений, а занимается лишь коллекционированием и каталогизацией ссылок, присылаемых и публикуемых на форуме нашими читателями. Если вы являетесь правообладателем какого-либо представленного материала и не желаете чтобы ссылка на него находилась в нашем каталоге, свяжитесь с нами и мы незамедлительно удалим её. Файлы для обмена на трекере предоставлены пользователями сайта, и администрация не несёт ответственности за их содержание. Просьба не заливать файлы, защищенные авторскими правами, а также файлы нелегального содержания!