На всех торрентах на трекере установлена скидка на скачивание в размере 100 процентов(а).
 Возможность скачивания торрента НЕ зависит от ограничений при низком ратио, низком аплоаде, требуемом ратио или требуемом аплоаде.


Начать новую тему Ответить на тему
Статистика раздачи
Размер: 1.36 ГБ | Добавлен: 30 сен 2016, 20:37 | Скачали: 736
Сидеров: 509  [0 байт/сек]    Личеров: 201  [0 байт/сек]
Пред. тема | След. тема 

Автор
Сообщение

СообщениеДобавлено: 30 сен 2016, 20:37 

Страна: Мексика США
Производство: Lucia Films
Год выпуска: 2015
Жанр: триллер, драма
Продолжительность: 01:20:28

Режиссер: Гэбриел Рипштейн
Авторы сценария: Гэбриел Рипштейн, Исса Лопес

В ролях: Тим Рот, Кристиан Феррер, Моника дель Кармен, Крэйг Хенсли, Харрис Кендалл, Грег Лутс, Фаусто Олмос Рентерия

Описание: Агент по борьбе с незаконным оборотом алкоголя, табака и оружия Хэнк Харрис преследует Арнульфо Рубио — молодого человека, который торгует оружием между США и Мексикой. После того, как Харрис допускает грубую ошибку, Рубио принимает отчаянное решение: он похищает агента и увозит его в Мексику. И пока двое явных врагов медленно сближаются, их поджидает опасность. Единственный выход из ситуации — доверять друг другу...



Перевод: Авторский (одноголосый, закадровый) | Антон Карповский
Субтитры: нет


Качество: BDRip | исходник Blu-Ray (FRA) - 600.Miles.2015.COMPLETE.FR.BLURAY
Формат: АVI
Видео кодек: XviD
Аудио кодек: АС3
Видео: 720x384 (1.85:1), 25.000 fps, XviD build 67 ~1 967 kbps avg, 0.285 bit/pixel
Аудио: 48 kHz, AC3 Dolby Digital, 3/2 (L,C,R,l,r) + LFE ch, ~448 kbps

Дата премьеры (мир): 6 февраля 2015
ВНИМАНИЕ! Присутствует
ненормативная лексика




Релиз от: ylnian
Сборка дороги: rammzez
General
Полное имя : 600.Millas.2015.BDRip-ylnian.avi
Формат : AVI
Формат/Информация : Audio Video Interleave
Размер файла : 1,36 Гбайт
Продолжительность : 1 ч. 20 м.
Общий поток : 2424 Кбит/сек
Программа кодирования : VirtualDubMod 1.5.10.2 (build 2540/release)
Библиотека кодирования : VirtualDubMod build 2540/release

Видео
Идентификатор : 0
Формат : MPEG-4 Visual
Профиль формата : Advanced Simple@L5
Параметр BVOP формата : 1
Параметр QPel формата : Нет
Параметр GMC формата : Без точки перехода
Параметр матрицы формата : Default (MPEG)
Идентификатор кодека : XVID
Идентификатор кодека/Подсказка : XviD
Продолжительность : 1 ч. 20 м.
Битрейт : 1967 Кбит/сек
Ширина : 720 пикселей
Высота : 384 пикселя
Соотношение сторон : 1,85:1
Частота кадров : 25,000 кадров/сек
Цветовое пространство : YUV
Субдискретизация насыщенности : 4:2:0
Битовая глубина : 8 бит
Тип развёртки : Прогрессивная
Метод сжатия : С потерями
Бит/(Пиксели*Кадры) : 0.285
Размер потока : 1,11 Гбайт (81%)
Библиотека кодирования : XviD 67

Аудио
Идентификатор : 1
Формат : AC-3
Формат/Информация : Audio Coding 3
Расширение режима : CM (complete main)
Параметр Endianness формата : Big
Идентификатор кодека : 2000
Продолжительность : 1 ч. 20 м.
Вид битрейта : Постоянный
Битрейт : 448 Кбит/сек
Каналы : 6 каналов
Расположение каналов : Front: L C R, Side: L R, LFE
Частота : 48,0 КГц
Частота кадров : 31,250 кадров/сек (1536 spf)
Метод сжатия : С потерями
Размер потока : 258 Мбайт (18%)
Выравнивание : Разделение по промежуткам
Продолжительность промежутка : 40 мс. (1,00 видеокадр)
Время предзагрузки промежутка : 500 мс.
Заголовок : RUS - AVO - Karpovsky
загрузка...
Правила, инструкции, FAQ!!!
Торрент  Добавлен [30 сен 2016, 20:37] Скачать торрент
Скачать торрент
[ Размер 14.33 КБ / Просмотров 49 ]

Статус
Проверен 
 
Размер  1.36 ГБ
Приватный: Нет (DHT включён)
.torrent скачан  736
Как залить торрент? | Как скачать Torrent? | Как смотреть и слушать онлайн?  


     Отправить личное сообщение
   
Страница 1 из 1
Показать сообщения за:  Поле сортировки  
Начать новую тему Ответить на тему

   Похожие торренты   Автор   Ответы   Просмотры   Последнее сообщение 
В этой теме нет новых непрочитанных сообщений. Скачать торрент Проверен (Pop) Gloria Estefan - 90 Millas - 2007, APE (image+.cue), lossless

в форуме Зарубежная музыка, Размер: 394.4 МБ, Здоровье: 0%

Anonymous

0
0|0

10
0

15 авг 2016, 16:20

Anonymous Перейти к последнему сообщению

В этой теме нет новых непрочитанных сообщений. Скачать торрент Проверен Кухни народов мира - Миль А.А. - Швейцарская кухня [1992, PDF, RUS]

в форуме Кулинария, Размер: 4.64 МБ, Здоровье: 100%

Anonymous

0
14|2

11
2

19 окт 2016, 23:23

Anonymous Перейти к последнему сообщению

В этой теме нет новых непрочитанных сообщений. Скачать торрент Проверен АнЖ - 100 миль по прямой (2006) [Monkey's Audio|lossless] <Heavy Metal>

в форуме Русский рок, Размер: 370.99 МБ, Здоровье: 100%

Anonymous

0
3|1

45
0

11 авг 2014, 09:11

Anonymous Перейти к последнему сообщению

В этой теме нет новых непрочитанных сообщений. Скачать торрент Проверен Кухни народов мира - Миль А.А. - Швейцарская кухня [1992, DjVu, RUS]

в форуме Кулинария, Размер: 930.65 КБ, Здоровье: 100%

Anonymous

0
17|5

18
1

19 окт 2016, 23:24

Anonymous Перейти к последнему сообщению

В этой теме нет новых непрочитанных сообщений. Скачать торрент Проверен Шукшин Василий Макарович - Миль пардон, мадам! [2005, PDF/DjVu, RUS]

в форуме Русская литература, Размер: 36.15 МБ, Здоровье: 100%

Anonymous

0
1|0

11
0

07 сен 2016, 23:35

Anonymous Перейти к последнему сообщению



Сейчас этот форум просматривают: нет зарегистрированных пользователей и гости: 0


Вы не можете начинать темы
Вы не можете отвечать на сообщения
Вы не можете редактировать свои сообщения
Вы не можете удалять свои сообщения
Вы не можете добавлять вложения

Перейти:  

!ВНИМАНИЕ!
 Ресурс не предоставляет электронные версии произведений, а занимается лишь коллекционированием и каталогизацией ссылок, присылаемых и публикуемых на форуме нашими читателями. Если вы являетесь правообладателем какого-либо представленного материала и не желаете чтобы ссылка на него находилась в нашем каталоге, свяжитесь с нами и мы незамедлительно удалим её. Файлы для обмена на трекере предоставлены пользователями сайта, и администрация не несёт ответственности за их содержание. Просьба не заливать файлы, защищенные авторскими правами, а также файлы нелегального содержания!