На всех торрентах на трекере установлена скидка на скачивание в размере 100 процентов(а).
 Возможность скачивания торрента НЕ зависит от ограничений при низком ратио, низком аплоаде, требуемом ратио или требуемом аплоаде.


Начать новую тему Ответить на тему
Статистика раздачи
Размер: 1.41 ГБ | Добавлен: 29 сен 2016, 20:41 | Скачали: 5
Сидеров: 17  [0 байт/сек]    Личеров: 1  [0 байт/сек]
Пред. тема | След. тема 

Автор
Сообщение

СообщениеДобавлено: 29 сен 2016, 20:41 

Название: Тарзан. Легенда
Оригинальное название: The Legend of Tarzan
Год выпуска: 2016
Жанр: боевик, драма, мелодрама, приключения
Режиссер: Дэвид Йэтс
В ролях: Александр Скарсгард (John Clayton / Tarzan), Марго Робби (Jane Clayton), Сэмюэл Л. Джексон (George Washington Williams), Кристоф Вальц (Leon Rom), Джимон Хонсу (Chief Mbonga), Джим Бродбент (Prime Minister), Каспер Крамп (Major Kerckhover), Хэдли Фрайзер (Tarzan's Father), Женевьев О’Рейли (Tarzan's Mother), Саймон Расселл Бил (Mr. Frum), Рори Дж. Сапер (Young Tarzan (18 Years)), Кристиан Стивенс (Young Tarzan (5 Years))

О фильме:
Приспособившийся к жизни в Лондоне Тарзан возвращается в свой бывший дом, в джунгли, чтобы разобраться в том, что происходит в лагере горнодобывающей компании.



Страна: США, Великобритания, Канада
Студия: Dark Horse Entertainment, Jerry Weintraub Productions, Riche Productions, Village Roadshow Pictures
Продолжительность: 01:49:57
Перевод: Профессиональный (полное дублирование) | iTunes


Формат: AVI
Качество: BDRip
Видео: XviD build 73, 720x304 (2.35:1), 23.976 fps, 1437 Kbps (0.274 bit/pixel)
Звук: 48.0 kHz, AC3 Dolby Digital, 5/1 (L C R, Side: L R, LFE) ch, 384 kbps
Субтитры: Русские (на надписи и прочее) - форсированные

General
Complete name : Tarzan.Legenda.2016.XviD.BDRip.by.GeneralFilm.avi
Format : AVI
Format/Info : Audio Video Interleave
File size : 1.41 GiB
Duration : 1h 49mn
Overall bit rate : 1 830 Kbps
Writing application : VirtualDubMod 1.5.10.3 | http://www.virtualdub-fr.org || (build 2550/release)
Writing library : VirtualDubMod build 2550/release

Video
ID : 0
Format : MPEG-4 Visual
Format profile : Advanced Simple@L5
Format settings, BVOP : 1
Format settings, QPel : No
Format settings, GMC : No warppoints
Format settings, Matrix : Custom
Codec ID : XVID
Codec ID/Hint : XviD
Duration : 1h 49mn
Bit rate : 1 437 Kbps
Width : 720 pixels
Height : 304 pixels
Display aspect ratio : 2.35:1
Frame rate : 23.976 (23976/1000) fps
Color space : YUV
Chroma subsampling : 4:2:0
Bit depth : 8 bits
Scan type : Progressive
Compression mode : Lossy
Bits/(Pixel*Frame) : 0.274
Stream size : 1.10 GiB (79%)
Writing library : XviD 73

Audio
ID : 1
Format : AC-3
Format/Info : Audio Coding 3
Mode extension : CM (complete main)
Format settings, Endianness : Big
Codec ID : 2000
Duration : 1h 49mn
Bit rate mode : Constant
Bit rate : 384 Kbps
Channel(s) : 6 channels
Channel positions : Front: L C R, Side: L R, LFE
Sampling rate : 48.0 KHz
Frame rate : 31.250 fps (1536 spf)
Compression mode : Lossy
Stream size : 302 MiB (21%)
Alignment : Split accross interleaves
Interleave, duration : 42 ms (1.00 video frame)
Interleave, preload duratio : 500 ms




Релиз от:
Исходник: THE_LEGEND_OF_TARZAN_REMUX_HDCLUB
загрузка...
Правила, инструкции, FAQ!!!
Торрент  Добавлен [29 сен 2016, 20:41] Скачать торрент
Скачать торрент
[ Размер 14.85 КБ / Просмотров 50 ]

Статус
Проверен 
 
Размер  1.41 ГБ
Приватный: Нет (DHT включён)
.torrent скачан  5
Как залить торрент? | Как скачать Torrent? | Как смотреть и слушать онлайн?  


     Отправить личное сообщение
   
Страница 1 из 1
Показать сообщения за:  Поле сортировки  
Начать новую тему Ответить на тему

   Похожие торренты   Автор   Ответы   Просмотры   Последнее сообщение 
В этой теме нет новых непрочитанных сообщений. Скачать торрент Проверен Тарзан. Легенда / The Legend of Tarzan (2016) BDRip 1080p | iTunes

в форуме 720p | 1080p, Размер: 7.46 ГБ, Здоровье: 100%

Гость

0
690|203

94
1047

29 сен 2016, 20:50

Гость Перейти к последнему сообщению

В этой теме нет новых непрочитанных сообщений. Скачать торрент Проверен Легенда о Костоломе / Легенда о Костяном Драконе / Легенда о Костобое / Legend of the Boneknapper Dragon (2010) BDRip

в форуме Зарубежные мультфильмы, Размер: 451.83 МБ, Здоровье: 100%

Anonymous

0
24|2

276
33

06 ноя 2014, 17:19

Anonymous Перейти к последнему сообщению

В этой теме нет новых непрочитанных сообщений. Скачать торрент Проверен Тарзан в 3Д / Tarzan 3D (Райнхард Клоосс / Reinhard Klooss) [2013, Мультфильм, Семейный, Приключения, BDrip, 1080p] OverUnder / Вертикальная стереопара

в форуме 3D Мультфильмы, Размер: 11.28 ГБ, Здоровье: 100%

Anonymous

0
1|0

25
1

07 сен 2016, 17:44

Anonymous Перейти к последнему сообщению

В этой теме нет новых непрочитанных сообщений. Скачать торрент Проверен Легенда / Legend (2015) HDRip | iTunes

в форуме Триллеры, Размер: 1.37 ГБ, Здоровье: 100%

Гость

0
713|4

308
2

17 янв 2016, 10:23

Гость Перейти к последнему сообщению

В этой теме нет новых непрочитанных сообщений. Скачать торрент Проверен Тарзан в 3Д / Tarzan 3D (Райнхард Клоосс / Reinhard Klooss) [2013, Мультфильм, Семейный, Приключения, BDrip-AVC] Half OverUnder / Вертикальная анаморфная стереопара

в форуме HD-Video в 3D, Размер: 7.47 ГБ, Здоровье: 100%

Anonymous

0
56|19

70
0

02 ноя 2014, 09:47

Anonymous Перейти к последнему сообщению



Сейчас этот форум просматривают: нет зарегистрированных пользователей и гости: 0


Вы не можете начинать темы
Вы не можете отвечать на сообщения
Вы не можете редактировать свои сообщения
Вы не можете удалять свои сообщения
Вы не можете добавлять вложения

Перейти:  

!ВНИМАНИЕ!
 Ресурс не предоставляет электронные версии произведений, а занимается лишь коллекционированием и каталогизацией ссылок, присылаемых и публикуемых на форуме нашими читателями. Если вы являетесь правообладателем какого-либо представленного материала и не желаете чтобы ссылка на него находилась в нашем каталоге, свяжитесь с нами и мы незамедлительно удалим её. Файлы для обмена на трекере предоставлены пользователями сайта, и администрация не несёт ответственности за их содержание. Просьба не заливать файлы, защищенные авторскими правами, а также файлы нелегального содержания!