На всех торрентах на трекере установлена скидка на скачивание в размере 100 процентов(а).
 Возможность скачивания торрента НЕ зависит от ограничений при низком ратио, низком аплоаде, требуемом ратио или требуемом аплоаде.


Начать новую тему Ответить на тему
Статистика раздачи
Размер: 799.11 МБ | Добавлен: 11 апр 2015, 09:32 | Скачали: 3
Сидеров: 274  [0 байт/сек]    Личеров: 1  [0 байт/сек]
Пред. тема | След. тема 

Автор
Сообщение

СообщениеДобавлено: 05 янв 2014, 19:12 

Автор (режиссер): Knitting For Beginners
Название: Видеоуроки вязания спицами
Год выпуска: 2013
Жанр: Обучающее видео
Продолжительность: 53 х ~ 00:04:00
Качество видео: WEB-DLRip
Видеокодек: DivX 5
Битрейт видео: ~438 Кбит/сек
Размер кадра: 640x480
Аудиокодек: MP3 2,0
Битрейт аудио: 128 Кбит/сек

Описание:
Вместо уроков по вязанию крючком, к которым все уже привыкли, начинается самый необычный в истории курс по вязанию спицами. Он будет неожиданным даже для очень опытных вязальщиц, не смотря на то, что это всего лишь азы вязания. В начале мы узнаем о различных вариантах набора петель на спицы, а потом я расскажу о 16 способах вязания, которые используются разными народами. И тогда у начинающих вязальщиц будет очень большой выбор. Прежде чем начать тренироваться, нужно крепко задуматься, каким же лучше вязать способом? Предупреждаю – способов вязания спицами много, а выбрать нужно всего лишь один! Впрочем не буду торопить события.

1 Урок – Спицы для вязания
2 Урок – Как держать в руках спицы
3 Урок – Способы вязания первой петли
4 Урок – Набор петель - 1 способ. Норвежский метод
5 Урок – Набор петель - 2 способ
6 Урок – Набор петель - 3 способ
7 Урок – Набор петель - 4 способ. С утолщенным краем
8 Урок – Набор петель - 5 способ. Французский метод
9 Урок – Набор петель - 6 способ. Крестообразный набор
10 Урок – Набор петель - 7 способ. Крестообразный набор петель с утолщенным краем
11 Урок – Набор петель - 8 способ. На цепочку из воздушных петель
12 Урок – Набор петель - 9 способ. От рабочей нитки
13 Урок – Набор петель - 10 способ. Итальянский
14 Урок – Набор петель - 11 способ. С указательного пальца правой руки
15 Урок – Набор петель - 12 способ. С образованием косички
16 Урок – Набор петель - 13 способ. Перекрёстный набор
17 Урок – Набор петель - 14 способ. Витой немецкий набор
18 Урок – Набор петель - 15 способ. Набор с помощью крючка
19 Урок – Набор петель - 16 способ. С перекидом
20 Урок – Набор петель - 17-25 способ. Воздушными петлями
21 Урок – Набор петель - 26 способ
22 Урок – Набор петель - 27 способ. С открытыми петлями на кольцевые спицы
23 Урок – Набор петель - 28 способ. С открытыми петлями на дополнительную нить
24 Урок – Набор петель. Лицевая петля - За переднюю стенку петли. 1 способ
25 Урок – Набор петель. Лицевая петля - За заднюю стенку петли. 3 способ
26 Урок – Набор петель. Лицевая петля - За переднюю стенку петли. 5 способ
27 Урок – Набор петель. Лицевая петля - За заднюю стенку петли. 7 способ
28 Урок – Набор петель. Лицевая петля - За переднюю стенку петли. Английский метод. 9 способ
29 Урок – Набор петель. Лицевая петля - За заднюю стенку петли. Английский метод. 11 способ
30 Урок – Набор петель. Лицевая петля - За переднюю стенку петли. Нестандартный английский метод. 13 способ
31 Урок – Набор петель. Лицевая петля - За заднюю стенку петли. Нестандартный английский метод. 15 способ
32 Урок – Скрещенная лицевая петля - За переднюю стенку петли
33 Урок – Скрещенная лицевая петля - За заднюю стенку петли
34 Урок – Набор петель. Изнаночная петля - За переднюю стенку петли. Континентальный метод. 1 способ
35 Урок – Набор петель. Изнаночная петля - За заднюю стенку петли. Континентальный метод. 3 способ
36 Урок – Набор петель. Изнаночная петля - За переднюю стенку петли. Нестандартный континентальный метод. 5 способ
37 Урок – Набор петель. Изнаночная петля - За заднюю стенку петли. Нестандартный континентальный метод. 7 способ
38 Урок – Набор петель. Изнаночная петля - За переднюю стенку петли. Английский метод. 9 способ
39 Урок – Набор петель. Изнаночная петля - За заднюю стенку петли. Английский метод. 11 способ[/b]
40 Урок – Набор петель. Изнаночная петля - За переднюю стенку петли. Нестандартный английский метод. 13 способ
41 Урок – Набор петель. Изнаночная петля - За заднюю стенку петли. Нестандартный английский метод. 15 способ
42 Урок – Скрещенная изнаночная петля - За переднюю стенку петли
43 Урок – Скрещенная изнаночная петля - За заднюю стенку петли
1 Узор - Платочная вязка
2 Узор - Лицевая и изнаночная гладь
Уроки вязания спицами.docx-Доп. материал
Внимание! Раздача ведётся путём добавления новых уроков; при каждом добавлении создётся новый торрент. Чтобы начать докачку нового урока, пользователям необходимо сделать следующее:
1. Остановить скачивание.
2. Удалить старый торрент у себя из клиента (старые уроки удалять не надо).
3. Скачать новый торрент и запустить его у себя в клиенте вместо старого, при этом указать клиенту путь в старую папку куда и должно происходить скачивание новых уроков.
Ваш клиент при этом должен произвести хеширование (проверку) старой папки (если не производит сам - помогите ему сделать это), и будет докачивать только те уроки которых у вас ещё нет. Старые уроки при этом не удаляются, а продолжают раздаваться!
Eсли вы уже удалили старые уроки, то предотвратить повторную закачку старых уроков можно, отжав галочку в соответствующих местах при запуске нового торрента. По возможности, желательно не удалять старые уроки как можно дольше чтобы релизёр не столько продолжал раздавать старые уроки, а смог сконцентрироваться на новых.
Общее
Полное имя : ВЯЗАНИЕ СПИЦАМИ\БАЗОВЫЕ НАВЫКИ\1 Урок – Спицы для вязания.avi
Формат : AVI
Формат/Информация : Audio Video Interleave
Размер файла : 11,0 Мбайт
Продолжительность : 3 м. 3 с.
Общий поток : 500 Кбит/сек
Программа кодирования : Lavf51.12.1

Видео
Идентификатор : 0
Формат : MPEG-4 Visual
Профиль формата : Simple@L1
Параметр BVOP формата : Нет
Параметр QPel формата : Нет
Параметр GMC формата : Без точки перехода
Параметр матрицы формата : Default (H.263)
Идентификатор кодека : DX50
Идентификатор кодека/Подсказка : DivX 5
Продолжительность : 3 м. 3 с.
Битрейт : 360 Кбит/сек
Ширина : 640 пикселей
Высота : 480 пикселей
Соотношение сторон : 4:3
Частота кадров : 25,000 кадров/сек
Цветовое пространство : YUV
Субдискретизация насыщенности : 4:2:0
Битовая глубина : 8 бит
Тип развёртки : Прогрессивная
Метод сжатия : С потерями
Бит/(Пиксели*Кадры) : 0.047
Размер потока : 7,88 Мбайт (72%)
Библиотека кодирования : Lavc51.40.4

Аудио
Идентификатор : 1
Формат : MPEG Audio
Версия формата : Version 1
Профиль формата : Layer 3
Режим : Joint stereo
Расширение режима : MS Stereo
Идентификатор кодека : 55
Идентификатор кодека/Подсказка : MP3
Продолжительность : 3 м. 3 с.
Вид битрейта : Постоянный
Общее
Полное имя : ВЯЗАНИЕ СПИЦАМИ\БАЗОВЫЕ НАВЫКИ\2 Урок – Как держать в руках спицы.avi
Формат : AVI
Формат/Информация : Audio Video Interleave
Размер файла : 9,86 Мбайт
Продолжительность : 2 м. 39 с.
Общий поток : 520 Кбит/сек
Программа кодирования : Lavf51.12.1

Видео
Идентификатор : 0
Формат : MPEG-4 Visual
Профиль формата : Simple@L1
Параметр BVOP формата : Нет
Параметр QPel формата : Нет
Параметр GMC формата : Без точки перехода
Параметр матрицы формата : Default (H.263)
Идентификатор кодека : DX50
Идентификатор кодека/Подсказка : DivX 5
Продолжительность : 2 м. 38 с.
Битрейт : 380 Кбит/сек
Ширина : 640 пикселей
Высота : 480 пикселей
Соотношение сторон : 4:3
Частота кадров : 25,000 кадров/сек
Цветовое пространство : YUV
Субдискретизация насыщенности : 4:2:0
Битовая глубина : 8 бит
Тип развёртки : Прогрессивная
Метод сжатия : С потерями
Бит/(Пиксели*Кадры) : 0.049
Размер потока : 7,20 Мбайт (73%)
Библиотека кодирования : Lavc51.40.4

Аудио
Идентификатор : 1
Формат : MPEG Audio
Версия формата : Version 1
Профиль формата : Layer 3
Режим : Joint stereo
Расширение режима : MS Stereo
Идентификатор кодека : 55
Идентификатор кодека/Подсказка : MP3
Продолжительность : 2 м. 39 с.
Вид битрейта : Постоянный
Битрейт : 128 Кбит/сек
Каналы : 2 канала
Частота : 44,1 КГц
Метод сжатия : С потерями
Размер потока : 2,43 Мбайт (25%)
Выравнивание : Соединение по промежуткам
Продолжительность промежутка : 26 мс. (0,65 видеокадр)
Библиотека кодирования : LAME3.97
Общее
Полное имя : ВЯЗАНИЕ СПИЦАМИ\БАЗОВЫЕ НАВЫКИ\3 Урок – Способы вязания первой петли.avi
Формат : AVI
Формат/Информация : Audio Video Interleave
Размер файла : 32,8 Мбайт
Продолжительность : 8 м. 1 с.
Общий поток : 571 Кбит/сек
Программа кодирования : Lavf51.12.1

Видео
Идентификатор : 0
Формат : MPEG-4 Visual
Профиль формата : Simple@L1
Параметр BVOP формата : Нет
Параметр QPel формата : Нет
Параметр GMC формата : Без точки перехода
Параметр матрицы формата : Default (H.263)
Идентификатор кодека : DX50
Идентификатор кодека/Подсказка : DivX 5
Продолжительность : 8 м. 1 с.
Битрейт : 431 Кбит/сек
Ширина : 640 пикселей
Высота : 480 пикселей
Соотношение сторон : 4:3
Частота кадров : 25,000 кадров/сек
Цветовое пространство : YUV
Субдискретизация насыщенности : 4:2:0
Битовая глубина : 8 бит
Тип развёртки : Прогрессивная
Метод сжатия : С потерями
Бит/(Пиксели*Кадры) : 0.056
Размер потока : 24,7 Мбайт (75%)
Библиотека кодирования : Lavc51.40.4

Аудио
Идентификатор : 1
Формат : MPEG Audio
Версия формата : Version 1
Профиль формата : Layer 3
Режим : Joint stereo
Расширение режима : MS Stereo
Идентификатор кодека : 55
Идентификатор кодека/Подсказка : MP3
Продолжительность : 8 м. 1 с.
Вид битрейта : Постоянный
Битрейт : 128 Кбит/сек
Каналы : 2 канала
Частота : 44,1 КГц
Метод сжатия : С потерями
Размер потока : 7,35 Мбайт (22%)
Выравнивание : Соединение по промежуткам
Продолжительность промежутка : 26 мс. (0,65 видеокадр)
Библиотека кодирования : LAME3.97
Общее
Полное имя : ВЯЗАНИЕ СПИЦАМИ\БАЗОВЫЕ НАВЫКИ\4 Урок – Набор петель - 1 способ. Норвежский метод.avi
Формат : AVI
Формат/Информация : Audio Video Interleave
Размер файла : 18,6 Мбайт
Продолжительность : 4 м. 29 с.
Общий поток : 578 Кбит/сек
Программа кодирования : Lavf51.12.1

Видео
Идентификатор : 0
Формат : MPEG-4 Visual
Профиль формата : Simple@L1
Параметр BVOP формата : Нет
Параметр QPel формата : Нет
Параметр GMC формата : Без точки перехода
Параметр матрицы формата : Default (H.263)
Идентификатор кодека : DX50
Идентификатор кодека/Подсказка : DivX 5
Продолжительность : 4 м. 29 с.
Битрейт : 438 Кбит/сек
Ширина : 640 пикселей
Высота : 480 пикселей
Соотношение сторон : 4:3
Частота кадров : 25,000 кадров/сек
Цветовое пространство : YUV
Субдискретизация насыщенности : 4:2:0
Битовая глубина : 8 бит
Тип развёртки : Прогрессивная
Метод сжатия : С потерями
Бит/(Пиксели*Кадры) : 0.057
Размер потока : 14,1 Мбайт (76%)
Библиотека кодирования : Lavc51.40.4

Аудио
Идентификатор : 1
Формат : MPEG Audio
Версия формата : Version 1
Профиль формата : Layer 3
Режим : Joint stereo
Расширение режима : MS Stereo
Идентификатор кодека : 55
Идентификатор кодека/Подсказка : MP3
Продолжительность : 4 м. 29 с.
Вид битрейта : Постоянный
Битрейт : 128 Кбит/сек
Каналы : 2 канала
Частота : 44,1 КГц
Метод сжатия : С потерями
Размер потока : 4,11 Мбайт (22%)
Выравнивание : Соединение по промежуткам
Продолжительность промежутка : 26 мс. (0,65 видеокадр)
Библиотека кодирования : LAME3.97
Общее
Полное имя : ВЯЗАНИЕ СПИЦАМИ\БАЗОВЫЕ НАВЫКИ\5 Урок – Набор петель - 2 способ.avi
Формат : AVI
Формат/Информация : Audio Video Interleave
Размер файла : 13,5 Мбайт
Продолжительность : 3 м. 27 с.
Общий поток : 546 Кбит/сек
Программа кодирования : Lavf51.12.1

Видео
Идентификатор : 0
Формат : MPEG-4 Visual
Профиль формата : Simple@L1
Параметр BVOP формата : Нет
Параметр QPel формата : Нет
Параметр GMC формата : Без точки перехода
Параметр матрицы формата : Default (H.263)
Идентификатор кодека : DX50
Идентификатор кодека/Подсказка : DivX 5
Продолжительность : 3 м. 27 с.
Битрейт : 406 Кбит/сек
Ширина : 640 пикселей
Высота : 480 пикселей
Соотношение сторон : 4:3
Частота кадров : 25,000 кадров/сек
Цветовое пространство : YUV
Субдискретизация насыщенности : 4:2:0
Битовая глубина : 8 бит
Тип развёртки : Прогрессивная
Метод сжатия : С потерями
Бит/(Пиксели*Кадры) : 0.053
Размер потока : 10,0 Мбайт (74%)
Библиотека кодирования : Lavc51.40.4

Аудио
Идентификатор : 1
Формат : MPEG Audio
Версия формата : Version 1
Профиль формата : Layer 3
Режим : Joint stereo
Расширение режима : MS Stereo
Идентификатор кодека : 55
Идентификатор кодека/Подсказка : MP3
Продолжительность : 3 м. 27 с.
Вид битрейта : Постоянный
Битрейт : 128 Кбит/сек
Каналы : 2 канала
Частота : 44,1 КГц
Метод сжатия : С потерями
Размер потока : 3,17 Мбайт (23%)
Выравнивание : Соединение по промежуткам
Продолжительность промежутка : 26 мс. (0,65 видеокадр)
Библиотека кодирования : LAME3.97
Общее
Полное имя : ВЯЗАНИЕ СПИЦАМИ\БАЗОВЫЕ НАВЫКИ\6 Урок – Набор петель - 3 способ.avi
Формат : AVI
Формат/Информация : Audio Video Interleave
Размер файла : 17,2 Мбайт
Продолжительность : 4 м. 15 с.
Общий поток : 565 Кбит/сек
Программа кодирования : Lavf51.12.1

Видео
Идентификатор : 0
Формат : MPEG-4 Visual
Профиль формата : Simple@L1
Параметр BVOP формата : Нет
Параметр QPel формата : Нет
Параметр GMC формата : Без точки перехода
Параметр матрицы формата : Default (H.263)
Идентификатор кодека : DX50
Идентификатор кодека/Подсказка : DivX 5
Продолжительность : 4 м. 15 с.
Битрейт : 425 Кбит/сек
Ширина : 640 пикселей
Высота : 480 пикселей
Соотношение сторон : 4:3
Частота кадров : 25,000 кадров/сек
Цветовое пространство : YUV
Субдискретизация насыщенности : 4:2:0
Битовая глубина : 8 бит
Тип развёртки : Прогрессивная
Метод сжатия : С потерями
Бит/(Пиксели*Кадры) : 0.055
Размер потока : 12,9 Мбайт (75%)
Библиотека кодирования : Lavc51.40.4

Аудио
Идентификатор : 1
Формат : MPEG Audio
Версия формата : Version 1
Профиль формата : Layer 3
Режим : Joint stereo
Расширение режима : MS Stereo
Идентификатор кодека : 55
Идентификатор кодека/Подсказка : MP3
Продолжительность : 4 м. 15 с.
Вид битрейта : Постоянный
Битрейт : 128 Кбит/сек
Каналы : 2 канала
Частота : 44,1 КГц
Метод сжатия : С потерями
Размер потока : 3,90 Мбайт (23%)
Выравнивание : Соединение по промежуткам
Продолжительность промежутка : 26 мс. (0,65 видеокадр)
Библиотека кодирования : LAME3.97
Общее
Полное имя : ВЯЗАНИЕ СПИЦАМИ\БАЗОВЫЕ НАВЫКИ\7 Урок – Набор петель - 4 способ. С утолщенным краем.avi
Формат : AVI
Формат/Информация : Audio Video Interleave
Размер файла : 8,81 Мбайт
Продолжительность : 1 м. 53 с.
Общий поток : 653 Кбит/сек
Программа кодирования : Lavf51.12.1

Видео
Идентификатор : 0
Формат : MPEG-4 Visual
Профиль формата : Simple@L1
Параметр BVOP формата : Нет
Параметр QPel формата : Нет
Параметр GMC формата : Без точки перехода
Параметр матрицы формата : Default (H.263)
Идентификатор кодека : DX50
Идентификатор кодека/Подсказка : DivX 5
Продолжительность : 1 м. 53 с.
Битрейт : 513 Кбит/сек
Ширина : 640 пикселей
Высота : 480 пикселей
Соотношение сторон : 4:3
Частота кадров : 25,000 кадров/сек
Цветовое пространство : YUV
Субдискретизация насыщенности : 4:2:0
Битовая глубина : 8 бит
Тип развёртки : Прогрессивная
Метод сжатия : С потерями
Бит/(Пиксели*Кадры) : 0.067
Размер потока : 6,91 Мбайт (78%)
Библиотека кодирования : Lavc51.40.4

Аудио
Идентификатор : 1
Формат : MPEG Audio
Версия формата : Version 1
Профиль формата : Layer 3
Режим : Joint stereo
Расширение режима : MS Stereo
Идентификатор кодека : 55
Идентификатор кодека/Подсказка : MP3
Продолжительность : 1 м. 53 с.
Вид битрейта : Постоянный
Битрейт : 128 Кбит/сек
Каналы : 2 канала
Частота : 44,1 КГц
Метод сжатия : С потерями
Размер потока : 1,73 Мбайт (20%)
Выравнивание : Соединение по промежуткам
Продолжительность промежутка : 26 мс. (0,65 видеокадр)
Библиотека кодирования : LAME3.97
Общее
Полное имя : ВЯЗАНИЕ СПИЦАМИ\БАЗОВЫЕ НАВЫКИ\8 Урок – Набор петель - 5 способ. Французский метод.avi
Формат : AVI
Формат/Информация : Audio Video Interleave
Размер файла : 14,7 Мбайт
Продолжительность : 3 м. 24 с.
Общий поток : 603 Кбит/сек
Программа кодирования : Lavf51.12.1

Видео
Идентификатор : 0
Формат : MPEG-4 Visual
Профиль формата : Simple@L1
Параметр BVOP формата : Нет
Параметр QPel формата : Нет
Параметр GMC формата : Без точки перехода
Параметр матрицы формата : Default (H.263)
Идентификатор кодека : DX50
Идентификатор кодека/Подсказка : DivX 5
Продолжительность : 3 м. 23 с.
Битрейт : 463 Кбит/сек
Ширина : 640 пикселей
Высота : 480 пикселей
Соотношение сторон : 4:3
Частота кадров : 25,000 кадров/сек
Цветовое пространство : YUV
Субдискретизация насыщенности : 4:2:0
Битовая глубина : 8 бит
Тип развёртки : Прогрессивная
Метод сжатия : С потерями
Бит/(Пиксели*Кадры) : 0.060
Размер потока : 11,3 Мбайт (77%)
Библиотека кодирования : Lavc51.40.4

Аудио
Идентификатор : 1
Формат : MPEG Audio
Версия формата : Version 1
Профиль формата : Layer 3
Режим : Joint stereo
Расширение режима : MS Stereo
Идентификатор кодека : 55
Идентификатор кодека/Подсказка : MP3
Продолжительность : 3 м. 24 с.
Вид битрейта : Постоянный
Битрейт : 128 Кбит/сек
Каналы : 2 канала
Частота : 44,1 КГц
Метод сжатия : С потерями
Размер потока : 3,11 Мбайт (21%)
Выравнивание : Соединение по промежуткам
Продолжительность промежутка : 26 мс. (0,65 видеокадр)
Библиотека кодирования : LAME3.97
Общее
Полное имя : ВЯЗАНИЕ СПИЦАМИ\БАЗОВЫЕ НАВЫКИ\9 Урок – Набор петель - 6 способ. Крестообразный набор.avi
Формат : AVI
Формат/Информация : Audio Video Interleave
Размер файла : 17,3 Мбайт
Продолжительность : 4 м. 12 с.
Общий поток : 575 Кбит/сек
Программа кодирования : Lavf51.12.1

Видео
Идентификатор : 0
Формат : MPEG-4 Visual
Профиль формата : Simple@L1
Параметр BVOP формата : Нет
Параметр QPel формата : Нет
Параметр GMC формата : Без точки перехода
Параметр матрицы формата : Default (H.263)
Идентификатор кодека : DX50
Идентификатор кодека/Подсказка : DivX 5
Продолжительность : 4 м. 12 с.
Битрейт : 435 Кбит/сек
Ширина : 640 пикселей
Высота : 480 пикселей
Соотношение сторон : 4:3
Частота кадров : 25,000 кадров/сек
Цветовое пространство : YUV
Субдискретизация насыщенности : 4:2:0
Битовая глубина : 8 бит
Тип развёртки : Прогрессивная
Метод сжатия : С потерями
Бит/(Пиксели*Кадры) : 0.057
Размер потока : 13,1 Мбайт (76%)
Библиотека кодирования : Lavc51.40.4

Аудио
Идентификатор : 1
Формат : MPEG Audio
Версия формата : Version 1
Профиль формата : Layer 3
Режим : Joint stereo
Расширение режима : MS Stereo
Идентификатор кодека : 55
Идентификатор кодека/Подсказка : MP3
Продолжительность : 4 м. 12 с.
Вид битрейта : Постоянный
Битрейт : 128 Кбит/сек
Каналы : 2 канала
Частота : 44,1 КГц
Метод сжатия : С потерями
Размер потока : 3,86 Мбайт (22%)
Выравнивание : Соединение по промежуткам
Продолжительность промежутка : 26 мс. (0,65 видеокадр)
Библиотека кодирования : LAME3.97
Общее
Полное имя : ВЯЗАНИЕ СПИЦАМИ\БАЗОВЫЕ НАВЫКИ\10 Урок – Набор петель - 7 способ. Крестообразный набор петель с утолщенным краем.avi
Формат : AVI
Формат/Информация : Audio Video Interleave
Размер файла : 19,7 Мбайт
Продолжительность : 4 м. 50 с.
Общий поток : 568 Кбит/сек
Программа кодирования : Lavf51.12.1

Видео
Идентификатор : 0
Формат : MPEG-4 Visual
Профиль формата : Simple@L1
Параметр BVOP формата : Нет
Параметр QPel формата : Нет
Параметр GMC формата : Без точки перехода
Параметр матрицы формата : Default (H.263)
Идентификатор кодека : DX50
Идентификатор кодека/Подсказка : DivX 5
Продолжительность : 4 м. 50 с.
Битрейт : 428 Кбит/сек
Ширина : 640 пикселей
Высота : 480 пикселей
Соотношение сторон : 4:3
Частота кадров : 25,000 кадров/сек
Цветовое пространство : YUV
Субдискретизация насыщенности : 4:2:0
Битовая глубина : 8 бит
Тип развёртки : Прогрессивная
Метод сжатия : С потерями
Бит/(Пиксели*Кадры) : 0.056
Размер потока : 14,8 Мбайт (75%)
Библиотека кодирования : Lavc51.40.4

Аудио
Идентификатор : 1
Формат : MPEG Audio
Версия формата : Version 1
Профиль формата : Layer 3
Режим : Joint stereo
Расширение режима : MS Stereo
Идентификатор кодека : 55
Идентификатор кодека/Подсказка : MP3
Продолжительность : 4 м. 50 с.
Вид битрейта : Постоянный
Битрейт : 128 Кбит/сек
Каналы : 2 канала
Частота : 44,1 КГц
Метод сжатия : С потерями
Размер потока : 4,43 Мбайт (23%)
Выравнивание : Соединение по промежуткам
Продолжительность промежутка : 26 мс. (0,65 видеокадр)
Библиотека кодирования : LAME3.97
Общее
Полное имя : ВЯЗАНИЕ СПИЦАМИ\БАЗОВЫЕ НАВЫКИ\11 Урок – Набор петель - 8 способ. На цепочку из воздушных петель.avi
Формат : AVI
Формат/Информация : Audio Video Interleave
Размер файла : 7,65 Мбайт
Продолжительность : 2 м. 28 с.
Общий поток : 432 Кбит/сек
Программа кодирования : Lavf51.12.1

Видео
Идентификатор : 0
Формат : MPEG-4 Visual
Профиль формата : Simple@L1
Параметр BVOP формата : Нет
Параметр QPel формата : Нет
Параметр GMC формата : Без точки перехода
Параметр матрицы формата : Default (H.263)
Идентификатор кодека : DX50
Идентификатор кодека/Подсказка : DivX 5
Продолжительность : 2 м. 28 с.
Битрейт : 291 Кбит/сек
Ширина : 480 пикселей
Высота : 360 пикселей
Соотношение сторон : 4:3
Частота кадров : 25,000 кадров/сек
Цветовое пространство : YUV
Субдискретизация насыщенности : 4:2:0
Битовая глубина : 8 бит
Тип развёртки : Прогрессивная
Метод сжатия : С потерями
Бит/(Пиксели*Кадры) : 0.067
Размер потока : 5,16 Мбайт (67%)
Библиотека кодирования : Lavc51.40.4

Аудио
Идентификатор : 1
Формат : MPEG Audio
Версия формата : Version 1
Профиль формата : Layer 3
Режим : Joint stereo
Расширение режима : MS Stereo
Идентификатор кодека : 55
Идентификатор кодека/Подсказка : MP3
Продолжительность : 2 м. 28 с.
Вид битрейта : Постоянный
Битрейт : 128 Кбит/сек
Каналы : 2 канала
Частота : 44,1 КГц
Метод сжатия : С потерями
Размер потока : 2,27 Мбайт (30%)
Выравнивание : Соединение по промежуткам
Продолжительность промежутка : 26 мс. (0,65 видеокадр)
Библиотека кодирования : LAME3.97
Общее
Полное имя : ВЯЗАНИЕ СПИЦАМИ\БАЗОВЫЕ НАВЫКИ\12 Урок – Набор петель - 9 способ. От рабочей нитки.avi
Формат : AVI
Формат/Информация : Audio Video Interleave
Размер файла : 9,75 Мбайт
Продолжительность : 3 м. 8 с.
Общий поток : 433 Кбит/сек
Программа кодирования : Lavf51.12.1

Видео
Идентификатор : 0
Формат : MPEG-4 Visual
Профиль формата : Simple@L1
Параметр BVOP формата : Нет
Параметр QPel формата : Нет
Параметр GMC формата : Без точки перехода
Параметр матрицы формата : Default (H.263)
Идентификатор кодека : DX50
Идентификатор кодека/Подсказка : DivX 5
Продолжительность : 3 м. 8 с.
Битрейт : 292 Кбит/сек
Ширина : 480 пикселей
Высота : 360 пикселей
Соотношение сторон : 4:3
Частота кадров : 25,000 кадров/сек
Цветовое пространство : YUV
Субдискретизация насыщенности : 4:2:0
Битовая глубина : 8 бит
Тип развёртки : Прогрессивная
Метод сжатия : С потерями
Бит/(Пиксели*Кадры) : 0.068
Размер потока : 6,58 Мбайт (67%)
Библиотека кодирования : Lavc51.40.4

Аудио
Идентификатор : 1
Формат : MPEG Audio
Версия формата : Version 1
Профиль формата : Layer 3
Режим : Joint stereo
Расширение режима : MS Stereo
Идентификатор кодека : 55
Идентификатор кодека/Подсказка : MP3
Продолжительность : 3 м. 8 с.
Вид битрейта : Постоянный
Битрейт : 128 Кбит/сек
Каналы : 2 канала
Частота : 44,1 КГц
Метод сжатия : С потерями
Размер потока : 2,88 Мбайт (30%)
Выравнивание : Соединение по промежуткам
Продолжительность промежутка : 26 мс. (0,65 видеокадр)
Библиотека кодирования : LAME3.97
Общее
Полное имя : ВЯЗАНИЕ СПИЦАМИ\БАЗОВЫЕ НАВЫКИ\13 Урок – Набор петель - 10 способ. Итальянский.avi
Формат : AVI
Формат/Информация : Audio Video Interleave
Размер файла : 9,19 Мбайт
Продолжительность : 3 м. 0 с.
Общий поток : 428 Кбит/сек
Программа кодирования : Lavf51.12.1

Видео
Идентификатор : 0
Формат : MPEG-4 Visual
Профиль формата : Simple@L1
Параметр BVOP формата : Нет
Параметр QPel формата : Нет
Параметр GMC формата : Без точки перехода
Параметр матрицы формата : Default (H.263)
Идентификатор кодека : DX50
Идентификатор кодека/Подсказка : DivX 5
Продолжительность : 3 м. 0 с.
Битрейт : 288 Кбит/сек
Ширина : 480 пикселей
Высота : 360 пикселей
Соотношение сторон : 4:3
Частота кадров : 25,000 кадров/сек
Цветовое пространство : YUV
Субдискретизация насыщенности : 4:2:0
Битовая глубина : 8 бит
Тип развёртки : Прогрессивная
Метод сжатия : С потерями
Бит/(Пиксели*Кадры) : 0.067
Размер потока : 6,17 Мбайт (67%)
Библиотека кодирования : Lavc51.40.4

Аудио
Идентификатор : 1
Формат : MPEG Audio
Версия формата : Version 1
Профиль формата : Layer 3
Режим : Joint stereo
Расширение режима : MS Stereo
Идентификатор кодека : 55
Идентификатор кодека/Подсказка : MP3
Продолжительность : 3 м. 0 с.
Вид битрейта : Постоянный
Битрейт : 128 Кбит/сек
Каналы : 2 канала
Частота : 44,1 КГц
Метод сжатия : С потерями
Размер потока : 2,75 Мбайт (30%)
Выравнивание : Соединение по промежуткам
Продолжительность промежутка : 26 мс. (0,65 видеокадр)
Библиотека кодирования : LAME3.97
Общее
Полное имя : D:\upload\ВЯЗАНИЕ СПИЦАМИ\БАЗОВЫЕ НАВЫКИ\12 Урок – Набор петель - 9 способ. От рабочей нитки.avi
Формат : AVI
Формат/Информация : Audio Video Interleave
Размер файла : 9,75 Мбайт
Продолжительность : 3 м. 8 с.
Общий поток : 433 Кбит/сек
Программа кодирования : Lavf51.12.1

Видео
Идентификатор : 0
Формат : MPEG-4 Visual
Профиль формата : Simple@L1
Параметр BVOP формата : Нет
Параметр QPel формата : Нет
Параметр GMC формата : Без точки перехода
Параметр матрицы формата : Default (H.263)
Идентификатор кодека : DX50
Идентификатор кодека/Подсказка : DivX 5
Продолжительность : 3 м. 8 с.
Битрейт : 292 Кбит/сек
Ширина : 480 пикселей
Высота : 360 пикселей
Соотношение сторон : 4:3
Частота кадров : 25,000 кадров/сек
Цветовое пространство : YUV
Субдискретизация насыщенности : 4:2:0
Битовая глубина : 8 бит
Тип развёртки : Прогрессивная
Метод сжатия : С потерями
Бит/(Пиксели*Кадры) : 0.068
Размер потока : 6,58 Мбайт (67%)
Библиотека кодирования : Lavc51.40.4

Аудио
Идентификатор : 1
Формат : MPEG Audio
Версия формата : Version 1
Профиль формата : Layer 3
Режим : Joint stereo
Расширение режима : MS Stereo
Идентификатор кодека : 55
Идентификатор кодека/Подсказка : MP3
Продолжительность : 3 м. 8 с.
Вид битрейта : Постоянный
Битрейт : 128 Кбит/сек
Каналы : 2 канала
Частота : 44,1 КГц
Метод сжатия : С потерями
Размер потока : 2,88 Мбайт (30%)
Выравнивание : Соединение по промежуткам
Продолжительность промежутка : 26 мс. (0,65 видеокадр)
Библиотека кодирования : LAME3.97
Общее
Полное имя : ВЯЗАНИЕ СПИЦАМИ\БАЗОВЫЕ НАВЫКИ\14 Урок – Набор петель - 11 способ. С указательного пальца правой руки.avi
Формат : AVI
Формат/Информация : Audio Video Interleave
Размер файла : 10,3 Мбайт
Продолжительность : 2 м. 36 с.
Общий поток : 554 Кбит/сек
Программа кодирования : Lavf51.12.1

Видео
Идентификатор : 0
Формат : MPEG-4 Visual
Профиль формата : Simple@L1
Параметр BVOP формата : Нет
Параметр QPel формата : Нет
Параметр GMC формата : Без точки перехода
Параметр матрицы формата : Default (H.263)
Идентификатор кодека : DX50
Идентификатор кодека/Подсказка : DivX 5
Продолжительность : 2 м. 36 с.
Битрейт : 414 Кбит/сек
Ширина : 640 пикселей
Высота : 480 пикселей
Соотношение сторон : 4:3
Частота кадров : 25,000 кадров/сек
Цветовое пространство : YUV
Субдискретизация насыщенности : 4:2:0
Битовая глубина : 8 бит
Тип развёртки : Прогрессивная
Метод сжатия : С потерями
Бит/(Пиксели*Кадры) : 0.054
Размер потока : 7,71 Мбайт (75%)
Библиотека кодирования : Lavc51.40.4

Аудио
Идентификатор : 1
Формат : MPEG Audio
Версия формата : Version 1
Профиль формата : Layer 3
Режим : Joint stereo
Расширение режима : MS Stereo
Идентификатор кодека : 55
Идентификатор кодека/Подсказка : MP3
Продолжительность : 2 м. 36 с.
Вид битрейта : Постоянный
Битрейт : 128 Кбит/сек
Каналы : 2 канала
Частота : 44,1 КГц
Метод сжатия : С потерями
Размер потока : 2,39 Мбайт (23%)
Выравнивание : Соединение по промежуткам
Продолжительность промежутка : 26 мс. (0,65 видеокадр)
Библиотека кодирования : LAME3.97
Общее
Полное имя : ВЯЗАНИЕ СПИЦАМИ\БАЗОВЫЕ НАВЫКИ\15 Урок – Набор петель - 12 способ. С образованием косички.avi
Формат : AVI
Формат/Информация : Audio Video Interleave
Размер файла : 16,0 Мбайт
Продолжительность : 3 м. 23 с.
Общий поток : 661 Кбит/сек
Программа кодирования : Lavf51.12.1

Видео
Идентификатор : 0
Формат : MPEG-4 Visual
Профиль формата : Simple@L1
Параметр BVOP формата : Нет
Параметр QPel формата : Нет
Параметр GMC формата : Без точки перехода
Параметр матрицы формата : Default (H.263)
Идентификатор кодека : DX50
Идентификатор кодека/Подсказка : DivX 5
Продолжительность : 3 м. 23 с.
Битрейт : 521 Кбит/сек
Ширина : 640 пикселей
Высота : 480 пикселей
Соотношение сторон : 4:3
Частота кадров : 25,000 кадров/сек
Цветовое пространство : YUV
Субдискретизация насыщенности : 4:2:0
Битовая глубина : 8 бит
Тип развёртки : Прогрессивная
Метод сжатия : С потерями
Бит/(Пиксели*Кадры) : 0.068
Размер потока : 12,6 Мбайт (79%)
Библиотека кодирования : Lavc51.40.4

Аудио
Идентификатор : 1
Формат : MPEG Audio
Версия формата : Version 1
Профиль формата : Layer 3
Режим : Joint stereo
Расширение режима : MS Stereo
Идентификатор кодека : 55
Идентификатор кодека/Подсказка : MP3
Продолжительность : 3 м. 23 с.
Вид битрейта : Постоянный
Битрейт : 128 Кбит/сек
Каналы : 2 канала
Частота : 44,1 КГц
Метод сжатия : С потерями
Размер потока : 3,10 Мбайт (19%)
Выравнивание : Соединение по промежуткам
Продолжительность промежутка : 26 мс. (0,65 видеокадр)
Библиотека кодирования : LAME3.97
Общее
Полное имя : ВЯЗАНИЕ СПИЦАМИ\БАЗОВЫЕ НАВЫКИ\16 Урок – Набор петель - 13 способ. Перекрёстный набор.avi
Формат : AVI
Формат/Информация : Audio Video Interleave
Размер файла : 20,3 Мбайт
Продолжительность : 4 м. 55 с.
Общий поток : 576 Кбит/сек
Программа кодирования : Lavf51.12.1

Видео
Идентификатор : 0
Формат : MPEG-4 Visual
Профиль формата : Simple@L1
Параметр BVOP формата : Нет
Параметр QPel формата : Нет
Параметр GMC формата : Без точки перехода
Параметр матрицы формата : Default (H.263)
Идентификатор кодека : DX50
Идентификатор кодека/Подсказка : DivX 5
Продолжительность : 4 м. 55 с.
Битрейт : 435 Кбит/сек
Ширина : 640 пикселей
Высота : 480 пикселей
Соотношение сторон : 4:3
Частота кадров : 25,000 кадров/сек
Цветовое пространство : YUV
Субдискретизация насыщенности : 4:2:0
Битовая глубина : 8 бит
Тип развёртки : Прогрессивная
Метод сжатия : С потерями
Бит/(Пиксели*Кадры) : 0.057
Размер потока : 15,3 Мбайт (76%)
Библиотека кодирования : Lavc51.40.4

Аудио
Идентификатор : 1
Формат : MPEG Audio
Версия формата : Version 1
Профиль формата : Layer 3
Режим : Joint stereo
Расширение режима : MS Stereo
Идентификатор кодека : 55
Идентификатор кодека/Подсказка : MP3
Продолжительность : 4 м. 55 с.
Вид битрейта : Постоянный
Битрейт : 128 Кбит/сек
Каналы : 2 канала
Частота : 44,1 КГц
Метод сжатия : С потерями
Размер потока : 4,51 Мбайт (22%)
Выравнивание : Соединение по промежуткам
Продолжительность промежутка : 26 мс. (0,65 видеокадр)
Библиотека кодирования : LAME3.97
Общее
Полное имя : ВЯЗАНИЕ СПИЦАМИ\БАЗОВЫЕ НАВЫКИ\17 Урок – Набор петель - 14 способ. Витой немецкий набор.avi
Формат : AVI
Формат/Информация : Audio Video Interleave
Размер файла : 16,2 Мбайт
Продолжительность : 3 м. 56 с.
Общий поток : 573 Кбит/сек
Программа кодирования : Lavf51.12.1

Видео
Идентификатор : 0
Формат : MPEG-4 Visual
Профиль формата : Simple@L1
Параметр BVOP формата : Нет
Параметр QPel формата : Нет
Параметр GMC формата : Без точки перехода
Параметр матрицы формата : Default (H.263)
Идентификатор кодека : DX50
Идентификатор кодека/Подсказка : DivX 5
Продолжительность : 3 м. 56 с.
Битрейт : 433 Кбит/сек
Ширина : 640 пикселей
Высота : 480 пикселей
Соотношение сторон : 4:3
Частота кадров : 25,000 кадров/сек
Цветовое пространство : YUV
Субдискретизация насыщенности : 4:2:0
Битовая глубина : 8 бит
Тип развёртки : Прогрессивная
Метод сжатия : С потерями
Бит/(Пиксели*Кадры) : 0.056
Размер потока : 12,2 Мбайт (75%)
Библиотека кодирования : Lavc51.40.4

Аудио
Идентификатор : 1
Формат : MPEG Audio
Версия формата : Version 1
Профиль формата : Layer 3
Режим : Joint stereo
Расширение режима : MS Stereo
Идентификатор кодека : 55
Идентификатор кодека/Подсказка : MP3
Продолжительность : 3 м. 56 с.
Вид битрейта : Постоянный
Битрейт : 128 Кбит/сек
Каналы : 2 канала
Частота : 44,1 КГц
Метод сжатия : С потерями
Размер потока : 3,61 Мбайт (22%)
Выравнивание : Соединение по промежуткам
Продолжительность промежутка : 26 мс. (0,65 видеокадр)
Библиотека кодирования : LAME3.97
Общее
Полное имя : ВЯЗАНИЕ СПИЦАМИ\БАЗОВЫЕ НАВЫКИ\18 Урок – Набор петель - 15 способ. Набор с помощью крючка.avi
Формат : AVI
Формат/Информация : Audio Video Interleave
Размер файла : 8,51 Мбайт
Продолжительность : 2 м. 30 с.
Общий поток : 473 Кбит/сек
Программа кодирования : Lavf51.12.1

Видео
Идентификатор : 0
Формат : MPEG-4 Visual
Профиль формата : Simple@L1
Параметр BVOP формата : Нет
Параметр QPel формата : Нет
Параметр GMC формата : Без точки перехода
Параметр матрицы формата : Default (H.263)
Идентификатор кодека : DX50
Идентификатор кодека/Подсказка : DivX 5
Продолжительность : 2 м. 30 с.
Битрейт : 332 Кбит/сек
Ширина : 480 пикселей
Высота : 360 пикселей
Соотношение сторон : 4:3
Частота кадров : 25,000 кадров/сек
Цветовое пространство : YUV
Субдискретизация насыщенности : 4:2:0
Битовая глубина : 8 бит
Тип развёртки : Прогрессивная
Метод сжатия : С потерями
Бит/(Пиксели*Кадры) : 0.077
Размер потока : 5,98 Мбайт (70%)
Библиотека кодирования : Lavc51.40.4

Аудио
Идентификатор : 1
Формат : MPEG Audio
Версия формата : Version 1
Профиль формата : Layer 3
Режим : Joint stereo
Расширение режима : MS Stereo
Идентификатор кодека : 55
Идентификатор кодека/Подсказка : MP3
Продолжительность : 2 м. 30 с.
Вид битрейта : Постоянный
Битрейт : 128 Кбит/сек
Каналы : 2 канала
Частота : 44,1 КГц
Метод сжатия : С потерями
Размер потока : 2,30 Мбайт (27%)
Выравнивание : Соединение по промежуткам
Продолжительность промежутка : 26 мс. (0,65 видеокадр)
Библиотека кодирования : LAME3.97
Общее
Полное имя : ВЯЗАНИЕ СПИЦАМИ\БАЗОВЫЕ НАВЫКИ\19 Урок – Набор петель - 16 способ. С перекидом.avi
Формат : AVI
Формат/Информация : Audio Video Interleave
Размер файла : 12,3 Мбайт
Продолжительность : 3 м. 7 с.
Общий поток : 553 Кбит/сек
Программа кодирования : Lavf51.12.1

Видео
Идентификатор : 0
Формат : MPEG-4 Visual
Профиль формата : Simple@L1
Параметр BVOP формата : Нет
Параметр QPel формата : Нет
Параметр GMC формата : Без точки перехода
Параметр матрицы формата : Default (H.263)
Идентификатор кодека : DX50
Идентификатор кодека/Подсказка : DivX 5
Продолжительность : 3 м. 7 с.
Битрейт : 413 Кбит/сек
Ширина : 640 пикселей
Высота : 480 пикселей
Соотношение сторон : 4:3
Частота кадров : 25,000 кадров/сек
Цветовое пространство : YUV
Субдискретизация насыщенности : 4:2:0
Битовая глубина : 8 бит
Тип развёртки : Прогрессивная
Метод сжатия : С потерями
Бит/(Пиксели*Кадры) : 0.054
Размер потока : 9,20 Мбайт (75%)
Библиотека кодирования : Lavc51.40.4

Аудио
Идентификатор : 1
Формат : MPEG Audio
Версия формата : Version 1
Профиль формата : Layer 3
Режим : Joint stereo
Расширение режима : MS Stereo
Идентификатор кодека : 55
Идентификатор кодека/Подсказка : MP3
Продолжительность : 3 м. 7 с.
Вид битрейта : Постоянный
Битрейт : 128 Кбит/сек
Каналы : 2 канала
Частота : 44,1 КГц
Метод сжатия : С потерями
Размер потока : 2,86 Мбайт (23%)
Выравнивание : Соединение по промежуткам
Продолжительность промежутка : 26 мс. (0,65 видеокадр)
Библиотека кодирования : LAME3.97
Общее
Полное имя : ВЯЗАНИЕ СПИЦАМИ\БАЗОВЫЕ НАВЫКИ\20 Урок – Набор петель - 17-25 способ. Воздушными петлями.avi
Формат : AVI
Формат/Информация : Audio Video Interleave
Размер файла : 27,8 Мбайт
Продолжительность : 6 м. 56 с.
Общий поток : 560 Кбит/сек
Программа кодирования : Lavf51.12.1

Видео
Идентификатор : 0
Формат : MPEG-4 Visual
Профиль формата : Simple@L1
Параметр BVOP формата : Нет
Параметр QPel формата : Нет
Параметр GMC формата : Без точки перехода
Параметр матрицы формата : Default (H.263)
Идентификатор кодека : DX50
Идентификатор кодека/Подсказка : DivX 5
Продолжительность : 6 м. 56 с.
Битрейт : 420 Кбит/сек
Ширина : 640 пикселей
Высота : 480 пикселей
Соотношение сторон : 4:3
Частота кадров : 25,000 кадров/сек
Цветовое пространство : YUV
Субдискретизация насыщенности : 4:2:0
Битовая глубина : 8 бит
Тип развёртки : Прогрессивная
Метод сжатия : С потерями
Бит/(Пиксели*Кадры) : 0.055
Размер потока : 20,8 Мбайт (75%)
Библиотека кодирования : Lavc51.40.4

Аудио
Идентификатор : 1
Формат : MPEG Audio
Версия формата : Version 1
Профиль формата : Layer 3
Режим : Joint stereo
Расширение режима : MS Stereo
Идентификатор кодека : 55
Идентификатор кодека/Подсказка : MP3
Продолжительность : 6 м. 56 с.
Вид битрейта : Постоянный
Битрейт : 128 Кбит/сек
Каналы : 2 канала
Частота : 44,1 КГц
Метод сжатия : С потерями
Размер потока : 6,36 Мбайт (23%)
Выравнивание : Соединение по промежуткам
Продолжительность промежутка : 26 мс. (0,65 видеокадр)
Библиотека кодирования : LAME3.97
Общее
Полное имя : ВЯЗАНИЕ СПИЦАМИ\БАЗОВЫЕ НАВЫКИ\21 Урок – Набор петель - 26 способ.avi
Формат : AVI
Формат/Информация : Audio Video Interleave
Размер файла : 18,2 Мбайт
Продолжительность : 3 м. 51 с.
Общий поток : 659 Кбит/сек
Программа кодирования : Lavf51.12.1

Видео
Идентификатор : 0
Формат : MPEG-4 Visual
Профиль формата : Simple@L1
Параметр BVOP формата : Нет
Параметр QPel формата : Нет
Параметр GMC формата : Без точки перехода
Параметр матрицы формата : Default (H.263)
Идентификатор кодека : DX50
Идентификатор кодека/Подсказка : DivX 5
Продолжительность : 3 м. 51 с.
Битрейт : 519 Кбит/сек
Ширина : 640 пикселей
Высота : 480 пикселей
Соотношение сторон : 4:3
Частота кадров : 25,000 кадров/сек
Цветовое пространство : YUV
Субдискретизация насыщенности : 4:2:0
Битовая глубина : 8 бит
Тип развёртки : Прогрессивная
Метод сжатия : С потерями
Бит/(Пиксели*Кадры) : 0.068
Размер потока : 14,3 Мбайт (79%)
Библиотека кодирования : Lavc51.40.4

Аудио
Идентификатор : 1
Формат : MPEG Audio
Версия формата : Version 1
Профиль формата : Layer 3
Режим : Joint stereo
Расширение режима : MS Stereo
Идентификатор кодека : 55
Идентификатор кодека/Подсказка : MP3
Продолжительность : 3 м. 51 с.
Вид битрейта : Постоянный
Битрейт : 128 Кбит/сек
Каналы : 2 канала
Частота : 44,1 КГц
Метод сжатия : С потерями
Размер потока : 3,54 Мбайт (19%)
Выравнивание : Соединение по промежуткам
Продолжительность промежутка : 26 мс. (0,65 видеокадр)
Библиотека кодирования : LAME3.97
Общее
Полное имя : ВЯЗАНИЕ СПИЦАМИ\БАЗОВЫЕ НАВЫКИ\22 Урок – Набор петель - 27 способ. С открытыми петлями на кольцевые спицы.avi
Формат : AVI
Формат/Информация : Audio Video Interleave
Размер файла : 17,7 Мбайт
Продолжительность : 4 м. 15 с.
Общий поток : 581 Кбит/сек
Программа кодирования : Lavf51.12.1

Видео
Идентификатор : 0
Формат : MPEG-4 Visual
Профиль формата : Simple@L1
Параметр BVOP формата : Нет
Параметр QPel формата : Нет
Параметр GMC формата : Без точки перехода
Параметр матрицы формата : Default (H.263)
Идентификатор кодека : DX50
Идентификатор кодека/Подсказка : DivX 5
Продолжительность : 4 м. 15 с.
Битрейт : 441 Кбит/сек
Ширина : 640 пикселей
Высота : 480 пикселей
Соотношение сторон : 4:3
Частота кадров : 25,000 кадров/сек
Цветовое пространство : YUV
Субдискретизация насыщенности : 4:2:0
Битовая глубина : 8 бит
Тип развёртки : Прогрессивная
Метод сжатия : С потерями
Бит/(Пиксели*Кадры) : 0.057
Размер потока : 13,4 Мбайт (76%)
Библиотека кодирования : Lavc51.40.4

Аудио
Идентификатор : 1
Формат : MPEG Audio
Версия формата : Version 1
Профиль формата : Layer 3
Режим : Joint stereo
Расширение режима : MS Stereo
Идентификатор кодека : 55
Идентификатор кодека/Подсказка : MP3
Продолжительность : 4 м. 15 с.
Вид битрейта : Постоянный
Битрейт : 128 Кбит/сек
Каналы : 2 канала
Частота : 44,1 КГц
Метод сжатия : С потерями
Размер потока : 3,90 Мбайт (22%)
Выравнивание : Соединение по промежуткам
Продолжительность промежутка : 26 мс. (0,65 видеокадр)
Библиотека кодирования : LAME3.97
Скриншоты:



Торрент обновлён 11.04.15г.

Добавлены уроки:

УЗОРЫ:
3 Узор - Резинка 1х1
4 Узор - Резинка 2х2
5 Узор - Путанка

БАЗОВЫЕ НАВЫКИ:
44 Урок - Как закрыть петли - Русский метод
45 Урок - Как закрыть петли - 4 способ
46 Урок - Как закрыть петли - 5 способ
47 Урок - Как закрыть петли - 6 способ
48 Урок - Как закрыть петли - 7 способ
загрузка...
Правила, инструкции, FAQ!!!
Торрент  Добавлен [11 апр 2015, 09:32] Скачать торрент
Скачать торрент
[ Размер 25.96 КБ / Просмотров 30 ]

Статус
Проверен 
 
Размер  799.11 МБ
Приватный: Нет (DHT включён)
.torrent скачан  3
Как залить торрент? | Как скачать Torrent? | Как смотреть и слушать онлайн?  


     Отправить личное сообщение
   

СообщениеДобавлено: 05 янв 2014, 19:17 

Администратор
Администратор
Аватара пользователя

Стаж: 4 года 3 месяца 7 дней
Раздал: 263.87 ГБ
Скачал: 158.38 ГБ
Ратио: 1.666
Торренты: 0
Выложено по заказу пользователя aprel, надеюсь это то что Вам надо :ad:

_________________
Не скачивается раздача? напишите об этом в теме!


Профиль     Отправить личное сообщение
   

СообщениеДобавлено: 05 янв 2014, 19:49 

Зарегистрированные пользователи
Зарегистрированные пользователи

Стаж: 4 года 1 месяц 13 дней
Раздал: 11.1 ГБ
Скачал: 3.52 ГБ
Ратио: 3.152
Торренты: 0
Спасибо! Не ожидала, что так быстро откликнитесь. :ay:


Профиль     Отправить личное сообщение
   

СообщениеДобавлено: 11 апр 2015, 11:17 

Зарегистрированные пользователи
Зарегистрированные пользователи

Стаж: 1 год 9 месяцев 12 дней
Раздал: 221.66 ГБ
Скачал: 0 байт
Ратио: Seed.
Торренты: 0
Спасибо :ay:


Профиль     Отправить личное сообщение
   
Страница 1 из 1
Показать сообщения за:  Поле сортировки  
Начать новую тему Ответить на тему

   Похожие торренты   Автор   Ответы   Просмотры   Последнее сообщение 
В этой теме нет новых непрочитанных сообщений. Скачать торрент Проверен Видеоуроки вязания крючком [1 - 431 урока] (2012) [WEB-DLRip] (Обновляемая)

в форуме Интерактивные обучающие и развивающие материалы, Размер: 14.68 ГБ, Здоровье: 100%

Гость

0
15|2

930
0

30 авг 2015, 22:33

Гость Перейти к последнему сообщению

В этой теме нет новых непрочитанных сообщений. Скачать торрент Проверен Контэнт, Мир книги | Сборник книг. Золотая коллекция вязания спицами. [2006] [JPEG]

в форуме На досуге, Размер: 306.25 МБ, Здоровье: 100%

Anonymous

0
2|1

367
2

14 ноя 2014, 21:35

Anonymous Перейти к последнему сообщению

В этой теме нет новых непрочитанных сообщений. Скачать торрент Проверен Дмитрий Петров | Полиглот. Испанский с нуля за 16 часов! [2013] SATRip (Обновляемая) - 16 уроков из 16

в форуме Интерактивные обучающие и развивающие материалы, Размер: 6.54 ГБ, Здоровье: 100%

Anonymous

0
48|2

323
0

28 дек 2015, 22:44

Anonymous Перейти к последнему сообщению

В этой теме нет новых непрочитанных сообщений. Скачать торрент Менталист (The Mentalist) / 6-й сезон, серии 1-17 (22) (Baibako) (2013-2014) [mp4 | 720x400] <WEB-DLRip> (Обновляемая)

в форуме Видео для смартфонов и КПК, Размер: 9.67 ГБ, Здоровье: 0%

Anonymous

0
0|0

477
0

21 апр 2014, 22:27

Anonymous Перейти к последнему сообщению

В этой теме нет новых непрочитанных сообщений. Скачать торрент Подборка уроков | Мастер - класс от Digital Photo. 25 уроков фотографии [2011] [PDF]

в форуме На досуге, Размер: 29.85 МБ, Здоровье: 100%

Anonymous

0
22|2

496
3

24 мар 2014, 21:08

Anonymous Перейти к последнему сообщению



Сейчас этот форум просматривают: нет зарегистрированных пользователей и гости: 0


Вы не можете начинать темы
Вы не можете отвечать на сообщения
Вы не можете редактировать свои сообщения
Вы не можете удалять свои сообщения
Вы не можете добавлять вложения

Перейти:  

!ВНИМАНИЕ!
 Ресурс не предоставляет электронные версии произведений, а занимается лишь коллекционированием и каталогизацией ссылок, присылаемых и публикуемых на форуме нашими читателями. Если вы являетесь правообладателем какого-либо представленного материала и не желаете чтобы ссылка на него находилась в нашем каталоге, свяжитесь с нами и мы незамедлительно удалим её. Файлы для обмена на трекере предоставлены пользователями сайта, и администрация не несёт ответственности за их содержание. Просьба не заливать файлы, защищенные авторскими правами, а также файлы нелегального содержания!