На всех торрентах на трекере установлена скидка на скачивание в размере 100 процентов(а).
 Возможность скачивания торрента НЕ зависит от ограничений при низком ратио, низком аплоаде, требуемом ратио или требуемом аплоаде.


Начать новую тему Ответить на тему
Статистика раздачи
Размер: 24.92 ГБ | Добавлен: 07 мар 2013, 21:57 | Скачали: 40
Сидеров: 37  [0 байт/сек]    Личеров: 13  [0 байт/сек]
Пред. тема | След. тема 

Автор
Сообщение

СообщениеДобавлено: 07 мар 2013, 21:57 

Ответить с цитатой 

Том и Джерри: Коллекция / Tom & Jerry: Collection





Год выпуска: 1940-1948
Страны: США
Жанры: мультфильм, комедия, семейный
Продолжительность: 04:46:04 (37 серий по ~ 7 мин. 43 сек.)
Режиссер: Джозеф Барбера, Уильям Ханн
Перевод:
Перевод #1: профессиональный (двухголосый закадровый, Омикрон)
Перевод #2: профессиональный (многоголосый закадровый, DVD (R5) "Tom And Jerry. Classic Collection")
Перевод #3: профессиональный (двухголосый закадровый, ИДДК)
Перевод #4: профессиональный (многоголосый закадровый, Магия)
Перевод #5: профессиональный (двухголосый закадровый, Видеобаза)
Перевод #6: авторский (Живов)
Перевод #7: любительский (одноголосый закадровый, ДММ / Техинвест)
Перевод #8: Оригинал


Описание:
Кот Том и мышонок Джерри - парочка, прославившаяся на весь мир. Уже несколько десятков лет Том гоняется за Джерри с неослабевающим азартом. Том придумывает всё новые и новые хитроумные уловки, чтобы поймать Джерри, но мышонок всё время выкручивается с не меньшей изобретательностью.



Качество: BDRip 1080p (источник: Blu-ray Disc)
Формат: MKV
Видео кодек: H.264 (AVC)
Аудио кодек: AC3
Видео: 1472x, 4330 Kbps, 23,976 fps
Звук: 48 kHz, AC3, 1c, 192 kbps DVO (Омикрон)
Звук: 48 kHz, AC3, 2c, 192 kbps MVO (R5)
Звук: 48 kHz, AC3, 2c, 224 kbps DVO (ИДДК)
Звук: 48 kHz, AC3, 2c, 192 kbps MVO (Магия)
Звук: 48 kHz, AC3, 2c, 192 kbps DVO (Видеобаза)
Звук: 48 kHz, AC3, 1c, 192 kbps AVO (Живов)
Звук: 48 kHz, AC3, 1c, 96 kbps VO (ДММ / Техинвест)
Звук: 48 kHz, AC3, 1c, 192 kbps Оригинал
Субтитры: Русские, Украинские, английские





Общее
Формат : Matroska
Версия формата : Version 4 / Version 2
Размер файла : 376 Мбайт
Продолжительность : 9 м. 5 с.
Общий поток : 5776 Кбит/сек
Дата кодирования : UTC 2013-03-06 08:01:37
Программа кодирования : mkvmerge v6.1.0 ('Old Devil') built on Mar 2 2013 14:32:37
Библиотека кодирования : libebml v1.3.0 + libmatroska v1.4.0

Видео
Идентификатор : 1
Формат : AVC
Формат/Информация : Advanced Video Codec
Профиль формата : High@L4.1
Параметр CABAC формата : Да
Параметр ReFrames формата : 4 кадра
Идентификатор кодека : V_MPEG4/ISO/AVC
Продолжительность : 9 м. 6 с.
Битрейт : 4330 Кбит/сек
Ширина : 1472 пикселя
Высота : 1080 пикселей
Соотношение сторон : 4:3
Режим частоты кадров : Постоянный
Частота кадров : 23,976 кадра/сек
Цветовое пространство : YUV
Субдискретизация насыщенности : 4:2:0
Битовая глубина : 8 бит
Тип развёртки : Прогрессивная
Бит/(Пиксели*Кадры) : 0.114
Размер потока : 273 Мбайт (73%)
Заголовок : Rip by Dimok
Библиотека кодирования : x264 core 129 r2245 bc13772
Настройки программы : cabac=1 / ref=4 / deblock=1:0:0 / analyse=0x3:0x133 / me=umh / subme=11 / psy=1 / psy_rd=1.00:0.20 / mixed_ref=1 / me_range=32 / chroma_me=1 / trellis=2 / 8x8dct=1 / cqm=0 / deadzone=21,11 / fast_pskip=0 / chroma_qp_offset=0 / threads=12 / lookahead_threads=2 / sliced_threads=0 / slices=1 / nr=0 / decimate=0 / interlaced=0 / bluray_compat=0 / constrained_intra=0 / bframes=3 / b_pyramid=2 / b_adapt=2 / b_bias=0 / direct=3 / weightb=1 / open_gop=0 / weightp=2 / keyint=240 / keyint_min=23 / scenecut=40 / intra_refresh=0 / rc_lookahead=70 / rc=2pass / mbtree=1 / bitrate=4330 / ratetol=1.0 / qcomp=0.60 / qpmin=1 / qpmax=69 / qpstep=4 / cplxblur=20.0 / qblur=0.5 / ip_ratio=1.40 / aq=2:0.80
Язык : English
Default : Да
Forced : Нет

Аудио #1
Идентификатор : 2
Формат : AC-3
Формат/Информация : Audio Coding 3
Расширение режима : CM (complete main)
Параметр Endianness формата : Big
Идентификатор кодека : A_AC3
Продолжительность : 9 м. 5 с.
Вид битрейта : Постоянный
Битрейт : 192 Кбит/сек
Каналы : 1 канал
Расположение каналов : Front: C
Частота : 48,0 КГц
Битовая глубина : 16 бит
Метод сжатия : С потерями
Размер потока : 12,5 Мбайт (3%)
Заголовок : DVO (Омикрон)
Язык : Russian
Default : Да
Forced : Нет

Аудио #2
Идентификатор : 3
Формат : AC-3
Формат/Информация : Audio Coding 3
Расширение режима : CM (complete main)
Параметр Endianness формата : Big
Идентификатор кодека : A_AC3
Продолжительность : 9 м. 5 с.
Вид битрейта : Постоянный
Битрейт : 192 Кбит/сек
Каналы : 2 канала
Расположение каналов : Front: L R
Частота : 48,0 КГц
Битовая глубина : 16 бит
Метод сжатия : С потерями
Размер потока : 12,5 Мбайт (3%)
Заголовок : MVO (R5)
Язык : Russian
Default : Нет
Forced : Нет

Аудио #3
Идентификатор : 4
Формат : AC-3
Формат/Информация : Audio Coding 3
Расширение режима : CM (complete main)
Параметр Endianness формата : Big
Идентификатор кодека : A_AC3
Продолжительность : 9 м. 5 с.
Вид битрейта : Постоянный
Битрейт : 224 Кбит/сек
Каналы : 2 канала
Расположение каналов : Front: L R
Частота : 48,0 КГц
Битовая глубина : 16 бит
Метод сжатия : С потерями
Размер потока : 14,6 Мбайт (4%)
Заголовок : DVO (ИДДК)
Язык : Russian
Default : Нет
Forced : Нет

Аудио #4
Идентификатор : 5
Формат : AC-3
Формат/Информация : Audio Coding 3
Расширение режима : CM (complete main)
Параметр Endianness формата : Big
Идентификатор кодека : A_AC3
Продолжительность : 9 м. 5 с.
Вид битрейта : Постоянный
Битрейт : 192 Кбит/сек
Каналы : 2 канала
Расположение каналов : Front: L R
Частота : 48,0 КГц
Битовая глубина : 16 бит
Метод сжатия : С потерями
Размер потока : 12,5 Мбайт (3%)
Заголовок : MVO (Магия)
Язык : Russian
Default : Нет
Forced : Нет

Аудио #5
Идентификатор : 6
Формат : AC-3
Формат/Информация : Audio Coding 3
Расширение режима : CM (complete main)
Параметр Endianness формата : Big
Идентификатор кодека : A_AC3
Продолжительность : 9 м. 5 с.
Вид битрейта : Постоянный
Битрейт : 192 Кбит/сек
Каналы : 2 канала
Расположение каналов : Front: L R
Частота : 48,0 КГц
Битовая глубина : 16 бит
Метод сжатия : С потерями
Размер потока : 12,5 Мбайт (3%)
Заголовок : DVO (Видеобаза)
Язык : Russian
Default : Нет
Forced : Нет

Аудио #6
Идентификатор : 7
Формат : AC-3
Формат/Информация : Audio Coding 3
Расширение режима : CM (complete main)
Параметр Endianness формата : Big
Идентификатор кодека : A_AC3
Продолжительность : 9 м. 5 с.
Вид битрейта : Постоянный
Битрейт : 192 Кбит/сек
Каналы : 1 канал
Расположение каналов : Front: C
Частота : 48,0 КГц
Битовая глубина : 16 бит
Метод сжатия : С потерями
Размер потока : 12,5 Мбайт (3%)
Заголовок : AVO (Живов)
Язык : Russian
Default : Нет
Forced : Нет

Аудио #7
Идентификатор : 8
Формат : AC-3
Формат/Информация : Audio Coding 3
Расширение режима : CM (complete main)
Параметр Endianness формата : Big
Идентификатор кодека : A_AC3
Продолжительность : 9 м. 5 с.
Вид битрейта : Постоянный
Битрейт : 96,0 Кбит/сек
Каналы : 1 канал
Расположение каналов : Front: C
Частота : 48,0 КГц
Битовая глубина : 16 бит
Метод сжатия : С потерями
Размер потока : 6,25 Мбайт (2%)
Заголовок : VO (Техинвест)
Язык : Russian
Default : Нет
Forced : Нет

Аудио #8
Идентификатор : 9
Формат : AC-3
Формат/Информация : Audio Coding 3
Расширение режима : CM (complete main)
Параметр Endianness формата : Big
Идентификатор кодека : A_AC3
Продолжительность : 9 м. 5 с.
Вид битрейта : Постоянный
Битрейт : 192 Кбит/сек
Каналы : 1 канал
Расположение каналов : Front: C
Частота : 48,0 КГц
Битовая глубина : 16 бит
Метод сжатия : С потерями
Размер потока : 12,5 Мбайт (3%)
Заголовок : Original
Язык : English
Default : Нет
Forced : Нет

Текст #1
Идентификатор : 10
Формат : UTF-8
Идентификатор кодека : S_TEXT/UTF8
Идентификатор кодека/Информация : UTF-8 Plain Text
Язык : Russian
Default : Нет
Forced : Нет

Текст #2
Идентификатор : 11
Формат : UTF-8
Идентификатор кодека : S_TEXT/UTF8
Идентификатор кодека/Информация : UTF-8 Plain Text
Язык : Ukrainian
Default : Нет
Forced : Нет

Текст #3
Идентификатор : 12
Формат : UTF-8
Идентификатор кодека : S_TEXT/UTF8
Идентификатор кодека/Информация : UTF-8 Plain Text
Язык : English
Default : Нет
Forced : Нет
_______________________________________________________
001. Puss Gets The Boot / За что наказали кота / (1940)
002. The Midnight Snack / Поздний ужин / (1941)
003. The Night Before Christmas / Ночь перед Рождеством / (1941)
004. Fraidy Cat / Кот-трусишка / (1942)
005. Dog Trouble / Пес - нам не товарищ / (1942)
006. Puss N' Toots / Гости не должны скучать / (1942)
007. The Bowling Alley-Cat / Давай сыграем в кегли / (1942)
008. Fine Feathered Friend / Пернатая заступница / (1942)
009. Sufferin' Cats! / К чему приводит жадность / (1943)
010. The Lonesome Mouse / Когда мышонку стало скучно / (1943)
011. The Yankee Doodle Mouse / Мышонок-стратег / (1943)
012. Baby Puss / Нелегко быть младенцем / (1943)
013. The Zoot Cat / Кот-стиляга / (1944)
014. The Million Dollar Cat / Кот миллионер / (1944)
015. The Bodyguard / Телохранитель / (1944)
016. Puttin' On the Dog / В собачьей шкуре / (1944)
017. Mouse Trouble / Неуловимый мышонок / (1944)
018. The Mouse Comes To Dinner / Романтический ужин / (1945)
019. Mouse In Manhattan / Мышонок в Нью-Йорке / (1945)
020. Tee For Two / Игра в гольф / (1945)
021. Flirty Birdy / Птичке хочется любви / (1945)
022. Quiet Please! / Соблюдайте тишину / (1945)
023. Springtime For Thomas / Пришла весна / (1946)
024. The Milky Wall / Подкидыш / (1946)
025. Trap Happy / Охота на мышей / (1946)
026. Solid Serenade / Шумная серенада / (1946)
027. Cat Fishin' / Том и Джерри на рыбалке / (1947)
028. Part Time Pal / Перемирие / (1947)
029. The Cat Concerto / Концерт для кота с оркестром! / (1947)
030. Dr. Jekyll And Mr. Mouse / Доктор Джекел и мистер Мышь / (1947)
031. Salt Water Tabby / Приключения на пляже / (1947)
032. A Mouse In The House / Если в доме завелись мыши / (1947)
033. The Invisible Mouse / Мышонок-невидимка / (1947)
034. Kitty Foiled / Надо друга выручать / (1948)
035. The Truce Hurts / Мирный договор / (1948)
036. Old Rockin' Chair Tom / Старый, добрый Том / (1948)
037. Professor Tom / Том-учитель / (1948)



Год выпуска: 200
Страны: США, Turner Entertainment
Жанры: мультфильм, комедия, приключения, Семейный
Продолжительность: 01:14:36
Режиссер: Билл Копп
Перевод: Профессиональный многоголосый + Авторский одноголосый (В.Белов) + Оригинал
В ролях:Чарльз Адлер, Джефф Беннетт, Джон Ди Маджио, Джесс Харнелл, Том Кенни, Билл Копп, Тресс МакНилл, Роб Полсен, Билли Уэст, Дж. Грант Альбрехт

Описание:
Том и Джерри принимают участие в гонках под названием "Fabolous Super Race" в надежде получить Суперприз - шикарный особняк! Но даже во время гонки не перестают гонятся друг за другом, устраивая ловушки.



Качество: BDRip 1080p (источник: Blu-ray Disc)
Формат: MKV
Видео кодек: H.264 (AVC)
Аудио кодек: AC3
Видео: 1920x1080, 3992 Kbps, 23,976 fps
Звук: 48 kHz, AC3, 2c, 192 kbps Многоголосный
Звук: 48 kHz, AC3, 6c, 640 kbps Авторский (Одноголосый закадровый) В.Белов
Звук: 48 kHz, AC3, 6c, 640 kbps Оригинал
Субтитры: Нет





Общее
Формат : Matroska
Версия формата : Version 4 / Version 2
Размер файла : 2,85 Гбайт
Продолжительность : 1 ч. 14 м.
Общий поток : 5465 Кбит/сек
Дата кодирования : UTC 2013-03-06 19:09:27
Программа кодирования : mkvmerge v6.1.0 ('Old Devil') built on Mar 2 2013 14:32:37
Библиотека кодирования : libebml v1.3.0 + libmatroska v1.4.0

Видео
Идентификатор : 1
Формат : AVC
Формат/Информация : Advanced Video Codec
Профиль формата : High@L4.1
Параметр CABAC формата : Да
Параметр ReFrames формата : 4 кадра
Идентификатор кодека : V_MPEG4/ISO/AVC
Продолжительность : 1 ч. 14 м.
Битрейт : 3992 Кбит/сек
Ширина : 1920 пикселей
Высота : 1080 пикселей
Соотношение сторон : 16:9
Режим частоты кадров : Постоянный
Частота кадров : 23,976 кадра/сек
Цветовое пространство : YUV
Субдискретизация насыщенности : 4:2:0
Битовая глубина : 8 бит
Тип развёртки : Прогрессивная
Бит/(Пиксели*Кадры) : 0.080
Размер потока : 2,02 Гбайт (71%)
Заголовок : Rip by Dimok
Библиотека кодирования : x264 core 129 r2245 bc13772
Настройки программы : cabac=1 / ref=4 / deblock=1:0:0 / analyse=0x3:0x133 / me=umh / subme=11 / psy=1 / psy_rd=1.00:0.50 / mixed_ref=1 / me_range=32 / chroma_me=1 / trellis=2 / 8x8dct=1 / cqm=0 / deadzone=21,11 / fast_pskip=0 / chroma_qp_offset=-2 / threads=12 / lookahead_threads=2 / sliced_threads=0 / slices=1 / nr=0 / decimate=0 / interlaced=0 / bluray_compat=0 / constrained_intra=0 / bframes=3 / b_pyramid=2 / b_adapt=2 / b_bias=0 / direct=3 / weightb=1 / open_gop=0 / weightp=2 / keyint=240 / keyint_min=23 / scenecut=40 / intra_refresh=0 / rc_lookahead=69 / rc=2pass / mbtree=1 / bitrate=3992 / ratetol=1.0 / qcomp=0.61 / qpmin=1 / qpmax=69 / qpstep=4 / cplxblur=20.0 / qblur=0.5 / ip_ratio=1.40 / aq=2:1.00
Язык : English
Default : Да
Forced : Нет

Аудио #1
Идентификатор : 2
Формат : AC-3
Формат/Информация : Audio Coding 3
Расширение режима : CM (complete main)
Параметр Endianness формата : Big
Идентификатор кодека : A_AC3
Продолжительность : 1 ч. 14 м.
Вид битрейта : Постоянный
Битрейт : 192 Кбит/сек
Каналы : 2 канала
Расположение каналов : Front: L R
Частота : 48,0 КГц
Битовая глубина : 16 бит
Метод сжатия : С потерями
Размер потока : 102 Мбайт (4%)
Заголовок : Профессиональный (многоголосый закадровый)
Язык : Russian
Default : Да
Forced : Нет

Аудио #2
Идентификатор : 3
Формат : AC-3
Формат/Информация : Audio Coding 3
Расширение режима : CM (complete main)
Параметр Endianness формата : Big
Идентификатор кодека : A_AC3
Продолжительность : 1 ч. 14 м.
Вид битрейта : Постоянный
Битрейт : 640 Кбит/сек
Каналы : 6 каналов
Расположение каналов : Front: L C R, Side: L R, LFE
Частота : 48,0 КГц
Битовая глубина : 16 бит
Метод сжатия : С потерями
Размер потока : 342 Мбайт (12%)
Заголовок : Авторский (Одноголосый закадровый) В.Белов
Язык : Russian
Default : Нет
Forced : Нет

Аудио #3
Идентификатор : 4
Формат : AC-3
Формат/Информация : Audio Coding 3
Расширение режима : CM (complete main)
Параметр Endianness формата : Big
Идентификатор кодека : A_AC3
Продолжительность : 1 ч. 14 м.
Вид битрейта : Постоянный
Битрейт : 640 Кбит/сек
Каналы : 6 каналов
Расположение каналов : Front: L C R, Side: L R, LFE
Частота : 48,0 КГц
Битовая глубина : 16 бит
Метод сжатия : С потерями
Размер потока : 342 Мбайт (12%)
Заголовок : Оригинал
Язык : English
Default : Нет
Forced : Нет

Меню
00:00:00.000 : :Chapter 01
00:05:42.342 : :Chapter 02
00:10:39.597 : :Chapter 03
00:16:36.704 : :Chapter 04
00:24:05.861 : :Chapter 05
00:30:40.004 : :Chapter 06
00:35:16.364 : :Chapter 07
00:42:07.983 : :Chapter 08
00:49:30.759 : :Chapter 09
00:54:38.817 : :Chapter 10
01:00:39.761 : :Chapter 11
01:06:27.233 : :Chapter 12
01:11:18.107 : :Chapter 13
_____________________________________________________
x264 [info]: frame I:1407 Avg QP:16.98 size:172791
x264 [info]: frame P:39375 Avg QP:22.33 size: 32432
x264 [info]: frame B:66546 Avg QP:26.31 size: 10710



Год выпуска: 2005
Страны: США / Toon City Animation, Toon City, Warner Bros. Animation
Жанры: мультфильм, комедия, приключения, Семейный
Продолжительность: 01:14:27
Режиссер: Билл Копп
Перевод: Многоголосый закадровый + Оригинал
В ролях:Джефф Беннетт, Кори Бертон, Кэтрин Фиоре, Брэд Гэррет, Джесс Харнелл, Том Кенни, Билл Копп, Роб Полсен, Фрэнк Уэлкер, Билли Уэст

Описание:
Выходит, что для своих погонь и проказ легендарные Том и Джерри уже использовали все возможные места на нашей старушке-Земле; и теперь забавные зверушки решают совершить вояж наМарс, чтобы повеселиться там от души! Вот, правда, марсиане оказались мелковаты: крошечные гуманоиды посчитали Тома свирепым галактическим монстром и решили расправиться с беднягой. Марс атакует! А в это время маленький хитрый Джерри был по ошибке признан возвратившимся после долгого отсутствия космическим вождем марсиан. Смогут ли мышонок и кот отложить на время свои разногласия, чтобы спасти Землю от инопланетного вторжения? Ведь для этого потребуются все девять жизней кота Тома!



Качество: BDRip 1080p (источник: Blu-ray Disc)
Формат: MKV
Видео кодек: H.264 (AVC)
Аудио кодек: AC3
Видео: 1920x1080, 3812 Kbps, 23,976 fps
Звук: 48 kHz, AC3, 6c, 384 kbps Многоголосый закадровый
Звук: 48 kHz, AC3, 6c, 640 kbps Оригинал
Субтитры: Нет





Общее
Формат : Matroska
Версия формата : Version 4 / Version 2
Размер файла : 2,52 Гбайт
Продолжительность : 1 ч. 14 м.
Общий поток : 4838 Кбит/сек
Дата кодирования : UTC 2013-03-06 19:02:32
Программа кодирования : mkvmerge v6.1.0 ('Old Devil') built on Mar 2 2013 14:32:37
Библиотека кодирования : libebml v1.3.0 + libmatroska v1.4.0

Видео
Идентификатор : 1
Формат : AVC
Формат/Информация : Advanced Video Codec
Профиль формата : High@L4.1
Параметр CABAC формата : Да
Параметр ReFrames формата : 4 кадра
Идентификатор кодека : V_MPEG4/ISO/AVC
Продолжительность : 1 ч. 14 м.
Битрейт : 3812 Кбит/сек
Ширина : 1920 пикселей
Высота : 1080 пикселей
Соотношение сторон : 16:9
Режим частоты кадров : Постоянный
Частота кадров : 23,976 кадра/сек
Цветовое пространство : YUV
Субдискретизация насыщенности : 4:2:0
Битовая глубина : 8 бит
Тип развёртки : Прогрессивная
Бит/(Пиксели*Кадры) : 0.077
Размер потока : 1,93 Гбайт (77%)
Заголовок : Rip by Dimok
Библиотека кодирования : x264 core 129 r2245 bc13772
Настройки программы : cabac=1 / ref=4 / deblock=1:0:0 / analyse=0x3:0x133 / me=umh / subme=11 / psy=1 / psy_rd=1.00:0.50 / mixed_ref=1 / me_range=32 / chroma_me=1 / trellis=2 / 8x8dct=1 / cqm=0 / deadzone=21,11 / fast_pskip=0 / chroma_qp_offset=-2 / threads=12 / lookahead_threads=2 / sliced_threads=0 / slices=1 / nr=0 / decimate=0 / interlaced=0 / bluray_compat=0 / constrained_intra=0 / bframes=3 / b_pyramid=2 / b_adapt=2 / b_bias=0 / direct=3 / weightb=1 / open_gop=0 / weightp=2 / keyint=240 / keyint_min=23 / scenecut=40 / intra_refresh=0 / rc_lookahead=70 / rc=2pass / mbtree=1 / bitrate=3812 / ratetol=1.0 / qcomp=0.62 / qpmin=1 / qpmax=69 / qpstep=4 / cplxblur=20.0 / qblur=0.5 / ip_ratio=1.40 / aq=2:1.00
Язык : English
Default : Да
Forced : Нет

Аудио #1
Идентификатор : 2
Формат : AC-3
Формат/Информация : Audio Coding 3
Расширение режима : CM (complete main)
Параметр Endianness формата : Big
Идентификатор кодека : A_AC3
Продолжительность : 1 ч. 14 м.
Вид битрейта : Постоянный
Битрейт : 384 Кбит/сек
Каналы : 6 каналов
Расположение каналов : Front: L C R, Side: L R, LFE
Частота : 48,0 КГц
Битовая глубина : 16 бит
Метод сжатия : С потерями
Размер потока : 205 Мбайт (8%)
Заголовок : Многоголосый закадровый
Язык : Russian
Default : Да
Forced : Нет

Аудио #2
Идентификатор : 3
Формат : AC-3
Формат/Информация : Audio Coding 3
Расширение режима : CM (complete main)
Параметр Endianness формата : Big
Идентификатор кодека : A_AC3
Продолжительность : 1 ч. 14 м.
Вид битрейта : Постоянный
Битрейт : 640 Кбит/сек
Каналы : 6 каналов
Расположение каналов : Front: L C R, Side: L R, LFE
Частота : 48,0 КГц
Битовая глубина : 16 бит
Метод сжатия : С потерями
Размер потока : 341 Мбайт (13%)
Заголовок : Original
Язык : English
Default : Нет
Forced : Нет

Меню
00:00:00.000 : :Chapter 01
00:05:42.342 : :Chapter 02
00:10:39.597 : :Chapter 03
00:16:36.704 : :Chapter 04
00:24:05.861 : :Chapter 05
00:30:40.004 : :Chapter 06
00:35:16.364 : :Chapter 07
00:42:07.983 : :Chapter 08
00:49:30.759 : :Chapter 09
00:54:38.817 : :Chapter 10
01:00:39.761 : :Chapter 11
01:06:27.233 : :Chapter 12
01:11:18.107 : :Chapter 13
_____________________________________________________
x264 [info]: frame I:1325 Avg QP:15.24 size:249185
x264 [info]: frame P:39997 Avg QP:20.47 size: 30846
x264 [info]: frame B:65792 Avg QP:23.93 size: 8583



Год выпуска: 2010
Страны: США | Warner Bros. Animation
Жанры: мультфильм, комедия, приключения, семейный
Продолжительность: 00:49:51
Режиссер: Спайк Брандт, Джефф Сьергей
Перевод: Дубляж + авторский + одноголосный + Оригинал
В ролях:Майкл Йорк, Малкольм МакДауэлл, Джон Рис-Дэвис, Грэй ДеЛисл, Джефф Бергман, Фил ЛаМарр, Грег Эллис, Джесс Харнелл, Ричард МакГонагл, Кэт Сауси

Описание:
В центре Лондона похищен драгоценный камень, Скотланд Ярд сбит с толку и несправедливо обвиняет в преступлении прекрасную певицу Ред. Лишь легендарный Шерлок Холмс с помощью своего ассистента Доктора Ватсона может найти настоящего вора. Ну и, конечно. Том и Джерри. Но найти ключ к разгадке этого дела не так сложно, как сохранить мирные отношения, пока вечные соперники мчатся, скачут и носятся на всех парах по улицам, переулкам и крышам, пытаясь восстановить справедливость. Близкие друзья Таффи, Буч, Друппи и другие самые разнообразные персонажи попадают под подозрение…



Качество: BDRip 1080p (источник: Blu-ray Disc)
Формат: MKV
Видео кодек: H.264 (AVC)
Аудио кодек: AC3
Видео: 1920x1080, 6069 Kbps, 23,976 fps
Звук: 48 kHz, AC3, 2c, 192 kbps Дубляж
Звук: 48 kHz, AC3, 6c, 384 kbps Профессиональный одноголосый (BBC Saint-Petersburg)
Звук: 48 kHz, AC3, 6c, 640 kbps Авторский одноголосый (В. Белов)
Звук: 48 kHz, AC3, 6c, 640 kbps Оригинал
Субтитры: Нет





Общее
Формат : Matroska
Версия формата : Version 4 / Version 2
Размер файла : 2,76 Гбайт
Продолжительность : 49 м.
Общий поток : 7927 Кбит/сек
Название фильма : Tom.i.Dzherri.Polet.na.Mars.2005.x264.BDRip.(AVC)-ExKinoRay
Дата кодирования : UTC 2013-03-06 19:26:55
Программа кодирования : mkvmerge v6.1.0 ('Old Devil') built on Mar 2 2013 14:32:37
Библиотека кодирования : libebml v1.3.0 + libmatroska v1.4.0

Видео
Идентификатор : 1
Формат : AVC
Формат/Информация : Advanced Video Codec
Профиль формата : High@L4.1
Параметр CABAC формата : Да
Параметр ReFrames формата : 4 кадра
Идентификатор кодека : V_MPEG4/ISO/AVC
Продолжительность : 49 м.
Битрейт : 6069 Кбит/сек
Ширина : 1920 пикселей
Высота : 1080 пикселей
Соотношение сторон : 16:9
Режим частоты кадров : Постоянный
Частота кадров : 23,976 кадра/сек
Цветовое пространство : YUV
Субдискретизация насыщенности : 4:2:0
Битовая глубина : 8 бит
Тип развёртки : Прогрессивная
Бит/(Пиксели*Кадры) : 0.122
Размер потока : 2,06 Гбайт (75%)
Заголовок : Rip by Dimok
Библиотека кодирования : x264 core 129 r2245 bc13772
Настройки программы : cabac=1 / ref=4 / deblock=1:0:0 / analyse=0x3:0x133 / me=umh / subme=11 / psy=1 / psy_rd=1.00:0.50 / mixed_ref=1 / me_range=32 / chroma_me=1 / trellis=2 / 8x8dct=1 / cqm=0 / deadzone=21,11 / fast_pskip=0 / chroma_qp_offset=-2 / threads=12 / lookahead_threads=2 / sliced_threads=0 / slices=1 / nr=0 / decimate=0 / interlaced=0 / bluray_compat=0 / constrained_intra=0 / bframes=3 / b_pyramid=2 / b_adapt=2 / b_bias=0 / direct=3 / weightb=1 / open_gop=0 / weightp=2 / keyint=240 / keyint_min=23 / scenecut=40 / intra_refresh=0 / rc_lookahead=69 / rc=2pass / mbtree=1 / bitrate=6069 / ratetol=1.0 / qcomp=0.61 / qpmin=1 / qpmax=69 / qpstep=4 / cplxblur=20.0 / qblur=0.5 / ip_ratio=1.40 / aq=2:1.00
Язык : English
Default : Да
Forced : Нет

Аудио #1
Идентификатор : 2
Формат : AC-3
Формат/Информация : Audio Coding 3
Расширение режима : CM (complete main)
Параметр Endianness формата : Big
Идентификатор кодека : A_AC3
Продолжительность : 49 м.
Вид битрейта : Постоянный
Битрейт : 192 Кбит/сек
Каналы : 2 канала
Расположение каналов : Front: L R
Частота : 48,0 КГц
Битовая глубина : 16 бит
Метод сжатия : С потерями
Задержка видео : 42 мс.
Размер потока : 68,5 Мбайт (2%)
Заголовок : Дубляж
Язык : Russian
Default : Да
Forced : Нет

Аудио #2
Идентификатор : 3
Формат : AC-3
Формат/Информация : Audio Coding 3
Расширение режима : CM (complete main)
Параметр Endianness формата : Big
Идентификатор кодека : A_AC3
Продолжительность : 49 м.
Вид битрейта : Постоянный
Битрейт : 384 Кбит/сек
Каналы : 6 каналов
Расположение каналов : Front: L C R, Side: L R, LFE
Частота : 48,0 КГц
Битовая глубина : 16 бит
Метод сжатия : С потерями
Задержка видео : 42 мс.
Размер потока : 137 Мбайт (5%)
Заголовок : Профессиональный одноголосый (BBC Saint-Petersburg)
Язык : Russian
Default : Нет
Forced : Нет

Аудио #3
Идентификатор : 4
Формат : AC-3
Формат/Информация : Audio Coding 3
Расширение режима : CM (complete main)
Параметр Endianness формата : Big
Идентификатор кодека : A_AC3
Продолжительность : 49 м.
Вид битрейта : Постоянный
Битрейт : 640 Кбит/сек
Каналы : 6 каналов
Расположение каналов : Front: L C R, Side: L R, LFE
Частота : 48,0 КГц
Битовая глубина : 16 бит
Метод сжатия : С потерями
Задержка видео : 42 мс.
Размер потока : 228 Мбайт (8%)
Заголовок : Авторский одноголосый (В. Белов)
Язык : Russian
Default : Нет
Forced : Нет

Аудио #4
Идентификатор : 5
Формат : AC-3
Формат/Информация : Audio Coding 3
Расширение режима : CM (complete main)
Параметр Endianness формата : Big
Идентификатор кодека : A_AC3
Продолжительность : 49 м.
Вид битрейта : Постоянный
Битрейт : 640 Кбит/сек
Каналы : 6 каналов
Расположение каналов : Front: L C R, Side: L R, LFE
Частота : 48,0 КГц
Битовая глубина : 16 бит
Метод сжатия : С потерями
Задержка видео : 42 мс.
Размер потока : 228 Мбайт (8%)
Заголовок : Original
Язык : English
Default : Нет
Forced : Нет

Меню
00:00:00.000 : :Chapter 01
00:05:42.342 : :Chapter 02
00:10:39.597 : :Chapter 03
00:16:36.704 : :Chapter 04
00:24:05.861 : :Chapter 05
00:30:40.004 : :Chapter 06
00:35:16.364 : :Chapter 07
00:42:07.983 : :Chapter 08
______________________________________________________
x264 [info]: frame I:1032 Avg QP:14.08 size:227444
x264 [info]: frame P:28751 Avg QP:19.06 size: 48807
x264 [info]: frame B:41934 Avg QP:22.13 size: 15045



Год выпуска: 2011
Страны: США | Warner Bros. Animation
Жанры: мультфильм, комедия, приключения, семейный
Продолжительность: 00:59:13
Режиссер: Спайк Брандт
Перевод: Дубляж + Авторский (одноголосый, закадровый) В. Белов + Оригинал
[size=2]В ролях:Грей ДеЛайл, Джо Аляски, Майкл Гоф, Роб Полсен, Тодд Стэшвик, Фрэнсис Конрой, Лорейн Ньюмен, Стивен Рут. Stephen Root, Кэт Сауси

Описание:
Том и Джерри парят над радугой и двигаются вниз по дороге из желтого кирпича и на пути им встречаются всем знакомые анимированные персонажи и пересказ классической истории.



Качество: BDRip 1080p (источник: Blu-ray Disc)
Формат: MKV
Видео кодек: H.264 (AVC)
Аудио кодек: AC3
Видео: 1920x1080, 5079 Kbps, 23,976 fps
Звук: 48 kHz, AC3, 2c, 192 kbps Дубляж
Звук: 48 kHz, AC3, 6c, 640 kbps Авторский (одноголосый, закадровый) В. Белов
Звук: 48 kHz, AC3, 6c, 640 kbps Огигинал
Субтитры: Русские, Английские





Общее
Формат : Matroska
Версия формата : Version 4 / Version 2
Размер файла : 2,71 Гбайт
Продолжительность : 59 м.
Общий поток : 6554 Кбит/сек
Дата кодирования : UTC 2013-03-06 19:16:45
Программа кодирования : mkvmerge v6.1.0 ('Old Devil') built on Mar 2 2013 14:32:37
Библиотека кодирования : libebml v1.3.0 + libmatroska v1.4.0

Видео
Идентификатор : 1
Формат : AVC
Формат/Информация : Advanced Video Codec
Профиль формата : High@L4.1
Параметр CABAC формата : Да
Параметр ReFrames формата : 4 кадра
Идентификатор кодека : V_MPEG4/ISO/AVC
Продолжительность : 59 м.
Битрейт : 5079 Кбит/сек
Ширина : 1920 пикселей
Высота : 1080 пикселей
Соотношение сторон : 16:9
Режим частоты кадров : Постоянный
Частота кадров : 23,976 кадра/сек
Цветовое пространство : YUV
Субдискретизация насыщенности : 4:2:0
Битовая глубина : 8 бит
Тип развёртки : Прогрессивная
Бит/(Пиксели*Кадры) : 0.102
Размер потока : 2,05 Гбайт (76%)
Заголовок : Rip by Dimok
Библиотека кодирования : x264 core 129 r2245 bc13772
Настройки программы : cabac=1 / ref=4 / deblock=1:0:0 / analyse=0x3:0x133 / me=umh / subme=11 / psy=1 / psy_rd=1.00:0.50 / mixed_ref=1 / me_range=32 / chroma_me=1 / trellis=2 / 8x8dct=1 / cqm=0 / deadzone=21,11 / fast_pskip=0 / chroma_qp_offset=-1 / threads=12 / lookahead_threads=2 / sliced_threads=0 / slices=1 / nr=0 / decimate=0 / interlaced=0 / bluray_compat=0 / constrained_intra=0 / bframes=3 / b_pyramid=2 / b_adapt=2 / b_bias=0 / direct=3 / weightb=1 / open_gop=0 / weightp=2 / keyint=240 / keyint_min=23 / scenecut=40 / intra_refresh=0 / rc_lookahead=69 / rc=2pass / mbtree=1 / bitrate=5079 / ratetol=1.0 / qcomp=0.60 / qpmin=1 / qpmax=69 / qpstep=4 / cplxblur=20.0 / qblur=0.5 / ip_ratio=1.40 / aq=2:1.00
Язык : English
Default : Да
Forced : Нет

Аудио #1
Идентификатор : 2
Формат : AC-3
Формат/Информация : Audio Coding 3
Расширение режима : CM (complete main)
Параметр Endianness формата : Big
Идентификатор кодека : A_AC3
Продолжительность : 59 м.
Вид битрейта : Постоянный
Битрейт : 192 Кбит/сек
Каналы : 2 канала
Расположение каналов : Front: L R
Частота : 48,0 КГц
Битовая глубина : 16 бит
Метод сжатия : С потерями
Размер потока : 81,3 Мбайт (3%)
Заголовок : Дубляж
Язык : Russian
Default : Да
Forced : Нет

Аудио #2
Идентификатор : 3
Формат : AC-3
Формат/Информация : Audio Coding 3
Расширение режима : CM (complete main)
Параметр Endianness формата : Big
Идентификатор кодека : A_AC3
Продолжительность : 59 м.
Вид битрейта : Постоянный
Битрейт : 640 Кбит/сек
Каналы : 6 каналов
Расположение каналов : Front: L C R, Side: L R, LFE
Частота : 48,0 КГц
Битовая глубина : 16 бит
Метод сжатия : С потерями
Размер потока : 271 Мбайт (10%)
Заголовок : Авторский (одноголосый, закадровый) В. Белов
Язык : Russian
Default : Нет
Forced : Нет

Аудио #3
Идентификатор : 4
Формат : AC-3
Формат/Информация : Audio Coding 3
Расширение режима : CM (complete main)
Параметр Endianness формата : Big
Идентификатор кодека : A_AC3
Продолжительность : 59 м.
Вид битрейта : Постоянный
Битрейт : 640 Кбит/сек
Каналы : 6 каналов
Расположение каналов : Front: L C R, Side: L R, LFE
Частота : 48,0 КГц
Битовая глубина : 16 бит
Метод сжатия : С потерями
Размер потока : 271 Мбайт (10%)
Заголовок : Original
Язык : English
Default : Нет
Forced : Нет

Текст #1
Идентификатор : 5
Формат : UTF-8
Идентификатор кодека : S_TEXT/UTF8
Идентификатор кодека/Информация : UTF-8 Plain Text
Заголовок : RUS
Язык : Russian
Default : Да
Forced : Нет

Текст #2
Идентификатор : 6
Формат : UTF-8
Идентификатор кодека : S_TEXT/UTF8
Идентификатор кодека/Информация : UTF-8 Plain Text
Заголовок : ENG
Язык : English
Default : Нет
Forced : Нет

Меню
00:00:00.000 : :Chapter 01
00:05:42.342 : :Chapter 02
00:10:39.597 : :Chapter 03
00:16:36.704 : :Chapter 04
00:24:05.861 : :Chapter 05
00:30:40.004 : :Chapter 06
00:35:16.364 : :Chapter 07
00:42:07.983 : :Chapter 08
00:49:30.759 : :Chapter 09
00:54:38.817 : :Chapter 10
_____________________________________________________
x264 [info]: frame I:1029 Avg QP:14.63 size:279675
x264 [info]: frame P:29809 Avg QP:20.09 size: 44319
x264 [info]: frame B:54351 Avg QP:23.76 size: 11904



Год выпуска: 2012
Страны: США / Warner Home Video
Жанры: мультфильм, комедия, приключения, семейный
Продолжительность: 00:57:40
Режиссер: Спайк Брандт, Тони Червоне
Перевод: Дубляж + Оригинал

Описание:
Он грабил богатых, раздавал награбленное бедным, а теперь ему отчаянно нужна помощь Тома и Джерри! Знаменитый разбойник Робин Гуд попал в лапы злого шерифа Ноттингемского, а возлюбленной Робина, деве Мэриан, грозит серьезная опасность со стороны алчного принца Джона. Сумеют ли заклятые враги Том и Джерри на время забыть о своей вражде, чтобы спасти положение? В новом полнометражном мультипликационном фильме любимая многими средневековая сказка обрела новое прочтение. Динамичный сюжет, опасные трюки, залихватские песни, и, конечно, всеобщие любимцы, воитель Томас и маленький разбойник Джерри. Один за всех и все за одного в самой бесшабашной и удивительной истории из всех, что когда-либо происходили в Шервудском лесу.



Качество: BDRip 1080p (источник: Blu-ray Disc)
Формат: MKV
Видео кодек: H.264 (AVC)
Аудио кодек: AC3
Видео: 1920x1080, 5222 Kbps, 23,976 fps
Звук: 48 kHz, AC3, 2c, 192 kbps Дубляж
Звук: 48 kHz, AC3, 6c, 640 kbps Оригинал
Субтитры: Русские Английские





Общее
Формат : Matroska
Версия формата : Version 4 / Version 2
Размер файла : 2,44 Гбайт
Продолжительность : 57 м.
Общий поток : 6057 Кбит/сек
Название фильма : Tom.i.Dzherri.Polet.na.Mars.2005.x264.BDRip.(AVC)-ExKinoRay
Дата кодирования : UTC 2013-03-06 19:22:01
Программа кодирования : mkvmerge v6.1.0 ('Old Devil') built on Mar 2 2013 14:32:37
Библиотека кодирования : libebml v1.3.0 + libmatroska v1.4.0

Видео
Идентификатор : 1
Формат : AVC
Формат/Информация : Advanced Video Codec
Профиль формата : High@L4.1
Параметр CABAC формата : Да
Параметр ReFrames формата : 4 кадра
Идентификатор кодека : V_MPEG4/ISO/AVC
Продолжительность : 57 м.
Битрейт : 5222 Кбит/сек
Ширина : 1920 пикселей
Высота : 1080 пикселей
Соотношение сторон : 16:9
Режим частоты кадров : Постоянный
Частота кадров : 23,976 кадра/сек
Цветовое пространство : YUV
Субдискретизация насыщенности : 4:2:0
Битовая глубина : 8 бит
Тип развёртки : Прогрессивная
Бит/(Пиксели*Кадры) : 0.105
Размер потока : 2,06 Гбайт (84%)
Заголовок : Rip by Dimok
Библиотека кодирования : x264 core 129 r2245 bc13772
Настройки программы : cabac=1 / ref=4 / deblock=1:0:0 / analyse=0x3:0x133 / me=umh / subme=11 / psy=1 / psy_rd=1.00:0.50 / mixed_ref=1 / me_range=32 / chroma_me=1 / trellis=2 / 8x8dct=1 / cqm=0 / deadzone=21,11 / fast_pskip=0 / chroma_qp_offset=-2 / threads=12 / lookahead_threads=2 / sliced_threads=0 / slices=1 / nr=0 / decimate=0 / interlaced=0 / bluray_compat=0 / constrained_intra=0 / bframes=3 / b_pyramid=2 / b_adapt=2 / b_bias=0 / direct=3 / weightb=1 / open_gop=0 / weightp=2 / keyint=240 / keyint_min=23 / scenecut=40 / intra_refresh=0 / rc_lookahead=69 / rc=2pass / mbtree=1 / bitrate=5222 / ratetol=1.0 / qcomp=0.61 / qpmin=1 / qpmax=69 / qpstep=4 / cplxblur=20.0 / qblur=0.5 / ip_ratio=1.40 / aq=2:1.00
Язык : English
Default : Да
Forced : Нет

Аудио #1
Идентификатор : 2
Формат : AC-3
Формат/Информация : Audio Coding 3
Расширение режима : CM (complete main)
Параметр Endianness формата : Big
Идентификатор кодека : A_AC3
Продолжительность : 57 м.
Вид битрейта : Постоянный
Битрейт : 192 Кбит/сек
Каналы : 2 канала
Расположение каналов : Front: L R
Частота : 48,0 КГц
Битовая глубина : 16 бит
Метод сжатия : С потерями
Размер потока : 79,2 Мбайт (3%)
Заголовок : Дубляж
Язык : Russian
Default : Да
Forced : Нет

Аудио #2
Идентификатор : 3
Формат : AC-3
Формат/Информация : Audio Coding 3
Расширение режима : CM (complete main)
Параметр Endianness формата : Big
Идентификатор кодека : A_AC3
Продолжительность : 57 м.
Вид битрейта : Постоянный
Битрейт : 640 Кбит/сек
Каналы : 6 каналов
Расположение каналов : Front: L C R, Side: L R, LFE
Частота : 48,0 КГц
Битовая глубина : 16 бит
Метод сжатия : С потерями
Размер потока : 264 Мбайт (11%)
Заголовок : Original
Язык : English
Default : Нет
Forced : Нет

Текст #1
Идентификатор : 4
Формат : UTF-8
Идентификатор кодека : S_TEXT/UTF8
Идентификатор кодека/Информация : UTF-8 Plain Text
Заголовок : RUS
Язык : Russian
Default : Да
Forced : Нет

Текст #2
Идентификатор : 5
Формат : UTF-8
Идентификатор кодека : S_TEXT/UTF8
Идентификатор кодека/Информация : UTF-8 Plain Text
Заголовок : ENG
Язык : English
Default : Нет
Forced : Нет

Меню
00:00:00.000 : :Chapter 01
00:05:42.342 : :Chapter 02
00:10:39.597 : :Chapter 03
00:16:36.704 : :Chapter 04
00:24:05.861 : :Chapter 05
00:30:40.004 : :Chapter 06
00:35:16.364 : :Chapter 07
00:42:07.983 : :Chapter 08
00:49:30.759 : :Chapter 09
00:54:38.817 : :Chapter 10
_____________________________________________________
x264 [info]: frame I:1098 Avg QP:13.64 size:244095
x264 [info]: frame P:29098 Avg QP:19.26 size: 49573
x264 [info]: frame B:52773 Avg QP:22.22 size: 10399
Правила, инструкции, FAQ!!!
Торрент  Добавлен [07 мар 2013, 21:57] Скачать торрент Магнет ссылка
Скачать торрент
[ Размер 133.2 КБ / Просмотров 98 ]

Статус  
 
Размер  24.92 ГБ
Приватный: Нет (DHT включён)
.torrent скачан  40
Как залить торрент? | Как скачать Torrent? | Ошибка в торренте? Качайте магнет  
загрузка...


     Отправить личное сообщение
   
Страница 1 из 1
Показать сообщения за:  Поле сортировки  
Начать новую тему Ответить на тему

   Похожие торренты   Автор   Ответы   Просмотры   Последнее сообщение 
В этой теме нет новых непрочитанных сообщений. Скачать торрент Том и Джерри: Гигантское приключение / Tom and Jerry's Giant Adventure (2013) BDRip 1080p

в форуме Зарубежные мультфильмы (HD Video), Размер: 2.19 ГБ, Здоровье: 100%

Anonymous

0
7|1

157
2

18 авг 2013, 20:56

Anonymous Перейти к последнему сообщению

В этой теме нет новых непрочитанных сообщений. Скачать торрент Проверен Том и Джерри: Потерянный дракон / Tom & Jerry: The Lost Dragon (2014) BDRip 1080p | P

в форуме Зарубежные мультфильмы (HD Video), Размер: 2.59 ГБ, Здоровье: 100%

Anonymous

0
61|3

310
145

06 окт 2014, 23:59

Anonymous Перейти к последнему сообщению

В этой теме нет новых непрочитанных сообщений. Скачать торрент Проверен Том и Джерри и Волшебник из страны Оз / Tom and Jerry The Wizard of Oz (2011) BDRip [H.264]

в форуме Зарубежные мультфильмы, Размер: 1.46 ГБ, Здоровье: 100%

Anonymous

0
48|3

181
2

10 авг 2014, 21:58

Anonymous Перейти к последнему сообщению

В этой теме нет новых непрочитанных сообщений. Скачать торрент Полицейская академия: Коллекция / Police Academy: Collection (Хью Уилсон, Джерри Пэрис) [1984-1985, комедия, криминал, BDRip SD (480p)]

в форуме Фильмы для iPod, iPhone, iPad, Размер: 4 ГБ, Здоровье: 100%

Anonymous

0
25|7

139
0

28 сен 2013, 12:25

Anonymous Перейти к последнему сообщению

В этой теме нет новых непрочитанных сообщений. Скачать торрент Том и Джерри: Гигантское приключение / Tom and Jerry's Giant Adventure (2013) BDRip | Лицензия

в форуме Зарубежные мультфильмы, Размер: 1.09 ГБ, Здоровье: 100%

Anonymous

0
135|3

141
1285

18 авг 2013, 21:08

Anonymous Перейти к последнему сообщению



Сейчас этот форум просматривают: нет зарегистрированных пользователей и гости: 0


Вы не можете начинать темы
Вы не можете отвечать на сообщения
Вы не можете редактировать свои сообщения
Вы не можете удалять свои сообщения
Вы не можете добавлять вложения

Перейти:  
Ресурс не предоставляет электронные версии произведений, а занимается лишь коллекционированием и каталогизацией ссылок, присылаемых и публикуемых на форуме нашими читателями. Если вы являетесь правообладателем какого-либо представленного материала и не желаете чтобы ссылка на него находилась в нашем каталоге, свяжитесь с нами и мы незамедлительно удалим её. Файлы для обмена на трекере предоставлены пользователями сайта, и администрация не несёт ответственности за их содержание. Просьба не заливать файлы, защищенные авторскими правами, а также файлы нелегального содержания!
cron