На всех торрентах на трекере установлена скидка на скачивание в размере 100 процентов(а).
 Возможность скачивания торрента НЕ зависит от ограничений при низком ратио, низком аплоаде, требуемом ратио или требуемом аплоаде.


Начать новую тему Ответить на тему
Статистика раздачи
Размер: 2.19 ГБ | Добавлен: 18 авг 2013, 20:56 | Скачали: 2
Сидеров: 7  [0 байт/сек]    Личеров: 1  [0 байт/сек]
Пред. тема | След. тема 

Автор
Сообщение

СообщениеДобавлено: 18 авг 2013, 20:56 

Ответить с цитатой 

Название: Том и Джерри: Гигантское приключение
Оригинальное название: Tom and Jerry's Giant Adventure
Год выхода: 2013
Жанр: мультфильм
Режиссер: Спайк Брандт, Тони Червоне

В ролях: Джейкоб Бертран, Грэй ДеЛисл, Гаррисон Кейллор

О фильме: В этом новом полнометражном мультфильме Том и Джерри - одни из последних зверушек, оставшихся в парке развлечений "Город сказок". Здесь "мечты оживают, если ты веришь в это". Мальчик Джек хочет спасти парк от рук жадного миллиардера и вместе со своими верными друзьями - котом и мышонком - решает продать своего бычка... за пригоршню волшебных бобов. Забравшись по гигантскому бобовому стеблю за облака, они попадают в волшебную страну. Там правит злой и голодный великан, и живут сказочные герои: Друпи, Спайк и даже Матушка Гусыня. Смогут ли Том и Джерри помириться друг с дружкой ради того, чтобы спасти "Город Сказок"? Можно не гадать на ромашке, а присоединиться к ним и увидеть все собственными глазами!



Выпущено: Warner Bros.
Продолжительность: 00:57:07
Перевод: Дублированный (лицензия)


Кодек: x264
Качество: BDRip (источник: Blu-ray Disc)
Видео: 1920x1080 (16:9), 23.976 fps, 4838 kbps
Аудио #1: AC-3, 2 ch, 192 kbps (Rus)
Аудио #2: AC-3, 6 ch, 448 kbps (Eng)
Субтитры: Русские, Английские
Скачать: сэмпл

Скриншоты

Общее
Уникальный идентификатор : 180342787155720373419460097342605559930 (0x87ACC1E5363D11EE91D8B064CBE7087A)
Полное имя : Tom.and.Jerry's.Giant.Adventure.2013.BDRip.1080p.Rus.Eng.mkv
Формат : Matroska
Версия формата : Version 2
Размер файла : 2,19 Гбайт
Продолжительность : 57 м.
Общий поток : 5479 Кбит/сек
Название фильма : Том и Джерри: Гигантское приключение / Tom and Jerry's Giant Adventure (2013)
Дата кодирования : UTC 2013-08-18 05:40:24
Программа кодирования : mkvmerge v5.8.0 ('No Sleep / Pillow') built on Sep 2 2012 15:37:04
Библиотека кодирования : libebml v1.2.3 + libmatroska v1.3.0

Видео
Идентификатор : 1
Формат : AVC
Формат/Информация : Advanced Video Codec
Профиль формата : High@L4.1
Параметр CABAC формата : Да
Параметр ReFrames формата : 4 кадра
Идентификатор кодека : V_MPEG4/ISO/AVC
Продолжительность : 57 м.
Битрейт : 4838 Кбит/сек
Ширина : 1920 пикселей
Высота : 1080 пикселей
Соотношение сторон : 16:9
Частота кадров : 23,976 кадра/сек
Цветовое пространство : YUV
Субдискретизация насыщенности : 4:2:0
Битовая глубина : 8 бит
Тип развёртки : Прогрессивная
Бит/(Пиксели*Кадры) : 0.097
Размер потока : 1,89 Гбайт (86%)
Заголовок : Release by AlexKa
Библиотека кодирования : x264 core 135 r2345 f0c1c53
Настройки программы : cabac=1 / ref=4 / deblock=1:0:0 / analyse=0x3:0x133 / me=umh / subme=11 / psy=1 / psy_rd=1.00:0.00 / mixed_ref=1 / me_range=32 / chroma_me=1 / trellis=2 / 8x8dct=1 / cqm=0 / deadzone=21,11 / fast_pskip=0 / chroma_qp_offset=-2 / threads=12 / lookahead_threads=2 / sliced_threads=0 / nr=0 / decimate=1 / interlaced=0 / bluray_compat=0 / constrained_intra=0 / bframes=8 / b_pyramid=2 / b_adapt=2 / b_bias=0 / direct=3 / weightb=1 / open_gop=0 / weightp=2 / keyint=240 / keyint_min=23 / scenecut=40 / intra_refresh=0 / rc_lookahead=60 / rc=2pass / mbtree=1 / bitrate=4838 / ratetol=1.0 / qcomp=0.60 / qpmin=0 / qpmax=69 / qpstep=4 / cplxblur=20.0 / qblur=0.5 / ip_ratio=1.40 / aq=1:1.00
Язык : English

Аудио #1
Идентификатор : 2
Формат : AC-3
Формат/Информация : Audio Coding 3
Профиль формата : Dolby Digital
Расширение режима : CM (complete main)
Идентификатор кодека : A_AC3
Продолжительность : 57 м.
Вид битрейта : Постоянный
Битрейт : 192 Кбит/сек
Каналы : 2 канала
Расположение каналов : Front: L R
Частота : 48,0 КГц
Битовая глубина : 16 бит
Метод сжатия : С потерями
Размер потока : 78,4 Мбайт (4%)
Заголовок : Rus
Язык : Russian

Аудио #2
Идентификатор : 3
Формат : AC-3
Формат/Информация : Audio Coding 3
Расширение режима : CM (complete main)
Идентификатор кодека : A_AC3
Продолжительность : 57 м.
Вид битрейта : Постоянный
Битрейт : 448 Кбит/сек
Каналы : 6 каналов
Расположение каналов : Front: L C R, Side: L R, LFE
Частота : 48,0 КГц
Битовая глубина : 16 бит
Метод сжатия : С потерями
Размер потока : 183 Мбайт (8%)
Заголовок : Eng
Язык : English

Текст #1
Идентификатор : 4
Формат : UTF-8
Идентификатор кодека : S_TEXT/UTF8
Идентификатор кодека/Информация : UTF-8 Plain Text
Заголовок : Rus
Язык : Russian

Текст #2
Идентификатор : 5
Формат : UTF-8
Идентификатор кодека : S_TEXT/UTF8
Идентификатор кодека/Информация : UTF-8 Plain Text
Заголовок : Eng
Язык : English

Меню
00:00:00.000 : :Chapter 01
00:12:17.945 : :Chapter 02
00:19:56.278 : :Chapter 03
00:29:04.743 : :Chapter 04
00:38:35.354 : :Chapter 05
00:50:14.636 : :Chapter 06
00:57:06.631 : :Chapter 07
x264 [info]: frame I:929 Avg QP:10.79 size:305113
x264 [info]: frame P:26746 Avg QP:16.38 size: 45160
x264 [info]: frame B:54488 Avg QP:21.43 size: 10661
x264 [info]: consecutive B-frames: 7.8% 13.6% 9.2% 54.0% 5.7% 4.0% 1.1% 2.9% 1.8%
Правила, инструкции, FAQ!!!
Торрент  Добавлен [18 авг 2013, 20:56] Скачать торрент Магнет ссылка
Скачать торрент
[ Размер 11.42 КБ / Просмотров 18 ]

Статус  
 
Размер  2.19 ГБ
Приватный: Нет (DHT включён)
.torrent скачан  2
Как залить торрент? | Как скачать Torrent? | Ошибка в торренте? Качайте магнет  
загрузка...


     Отправить личное сообщение
   
Страница 1 из 1
Показать сообщения за:  Поле сортировки  
Начать новую тему Ответить на тему

   Похожие торренты   Автор   Ответы   Просмотры   Последнее сообщение 
В этой теме нет новых непрочитанных сообщений. Скачать торрент Том и Джерри: Гигантское приключение / Tom and Jerry's Giant Adventure (2013) BDRip | Лицензия

в форуме Зарубежные мультфильмы, Размер: 1.09 ГБ, Здоровье: 100%

Anonymous

0
135|3

139
1285

18 авг 2013, 21:08

Anonymous Перейти к последнему сообщению

В этой теме нет новых непрочитанных сообщений. Скачать торрент Том и Джерри: Гигантское приключение / Tom and Jerry's Giant Adventure (2013) BDRip 720p | Лицензия

в форуме Зарубежные мультфильмы (HD Video), Размер: 1.46 ГБ, Здоровье: 100%

Anonymous

0
1|1

203
1

18 авг 2013, 21:01

Anonymous Перейти к последнему сообщению

В этой теме нет новых непрочитанных сообщений. Скачать торрент Проверен Том и Джерри: Потерянный дракон / Tom & Jerry: The Lost Dragon (2014) BDRip 1080p | P

в форуме Зарубежные мультфильмы (HD Video), Размер: 2.59 ГБ, Здоровье: 100%

Anonymous

0
61|3

309
145

06 окт 2014, 23:59

Anonymous Перейти к последнему сообщению

В этой теме нет новых непрочитанных сообщений. Скачать торрент Проверен Том и Джерри и Волшебник из страны Оз / Tom and Jerry The Wizard of Oz (2011) BDRip [H.264]

в форуме Зарубежные мультфильмы, Размер: 1.46 ГБ, Здоровье: 100%

Anonymous

0
48|3

181
2

10 авг 2014, 21:58

Anonymous Перейти к последнему сообщению

В этой теме нет новых непрочитанных сообщений. Скачать торрент Проверен Джерри Магуайер / Jerry Maguire (Кэмерон Кроу / Cameron Crowe) [1996, драма, мелодрама, комедия, BDRip, 480p] DUB, Original + sub (rus, eng)

в форуме Фильмы для iPod, iPhone, iPad, Размер: 1.91 ГБ, Здоровье: 100%

Гость

0
29|9

130
1

11 май 2015, 01:41

Гость Перейти к последнему сообщению



Сейчас этот форум просматривают: нет зарегистрированных пользователей и гости: 0


Вы не можете начинать темы
Вы не можете отвечать на сообщения
Вы не можете редактировать свои сообщения
Вы не можете удалять свои сообщения
Вы не можете добавлять вложения

Перейти:  
Ресурс не предоставляет электронные версии произведений, а занимается лишь коллекционированием и каталогизацией ссылок, присылаемых и публикуемых на форуме нашими читателями. Если вы являетесь правообладателем какого-либо представленного материала и не желаете чтобы ссылка на него находилась в нашем каталоге, свяжитесь с нами и мы незамедлительно удалим её. Файлы для обмена на трекере предоставлены пользователями сайта, и администрация не несёт ответственности за их содержание. Просьба не заливать файлы, защищенные авторскими правами, а также файлы нелегального содержания!
cron