На всех торрентах на трекере установлена скидка на скачивание в размере 100 процентов(а).
 Возможность скачивания торрента НЕ зависит от ограничений при низком ратио, низком аплоаде, требуемом ратио или требуемом аплоаде.


Начать новую тему Ответить на тему
Статистика раздачи
Размер: 447.06 МБ | Добавлен: 21 фев 2016, 10:28 | Скачали: 3
Сидеров: 59  [0 байт/сек]    Личеров: 1  [0 байт/сек]
Пред. тема | След. тема 

Автор
Сообщение

СообщениеДобавлено: 21 фев 2016, 10:28 

Ответить с цитатой 

TIMBER TIMBRE
Hot Dreams

Год издания: 2014
Жанр: Indie Folk, Alternative
Издатель(лейбл): Arts & Crafts
Продолжительность: 00:43:03
Наличие сканов: Front


01. Beat the Drum Slowly (5:29)
02. Hot Dreams (4:53)
03. Curtains?! (3:44)
04. Bring Me Simple Men (3:50)
05. Resurrection Drive Part II (2:11)
06. Grand Canyon (4:38)
07. This Low Commotion (5:06)
08. The New Tomorrow (4:04)
09. Run From Me (4:17)
10. The Three Sisters (4:51)

Контейнер: FLAC (*.flac)
Тип рипа: tracks

Разрядность: 24bits / 44.1kHz
Количество каналов: 2.0
Код:
foobar2000 1.2.2 / Замер динамического диапазона (DR) 1.1.1
Дата отчёта: 2014-09-05 18:00:38

--------------------------------------------------------------------------------
Анализ:   Timber Timbre / Hot Dreams
--------------------------------------------------------------------------------

DR         Пики          RMS        Продолжительность трека
--------------------------------------------------------------------------------
DR7       -0.40 дБ   -10.13 дБ      5:29 ?-Beat the Drum Slowly
DR8       -0.40 дБ   -10.14 дБ      4:53 ?-Hot Dreams
DR8       -0.40 дБ   -10.67 дБ      3:44 ?-Curtains!?
DR9       -0.40 дБ   -11.22 дБ      3:50 ?-Bring Me Simple Men
DR8       -0.40 дБ    -8.92 дБ      2:11 ?-Resurrection Drive Part II
DR8       -0.40 дБ    -9.99 дБ      4:38 ?-Grand Canyon
DR8       -0.40 дБ   -10.44 дБ      5:06 ?-This Low Commotion
DR8       -0.40 дБ   -10.74 дБ      4:04 ?-The New Tomorrow
DR7       -0.40 дБ   -11.44 дБ      4:17 ?-Run From Me
DR9       -0.40 дБ   -12.22 дБ      4:51 ?-The Three Sisters
--------------------------------------------------------------------------------

Количество треков: 10
Реальные значения DR: DR8

Частота:  44100 Гц
Каналов:  2
Разрядность:   24
Битрейт:  1401 кбит/с
Кодек:   FLAC
================================================================================
Релиз полностью готов к воспроизведению в аудиоплеере (я ориентировался на foobar2000)
При скачивании, если необходимо, переименуйте папку, в которой будет находиться альбом
Большая просьба к скачавшим поддерживать раздачу! Помогайте другим, ведь вам тоже может понадобиться помощь!
Не забываем говорить "Спасибо"!
Комментарии приветствуются!
загрузка...
Правила, инструкции, FAQ!!!
Торрент  Добавлен [21 фев 2016, 10:28] Скачать торрент Магнет ссылка
Скачать торрент
[ Размер 18.61 КБ / Просмотров 6 ]

Статус
Проверен 
 
Размер  447.06 МБ
Приватный: Нет (DHT включён)
.torrent скачан  3
Как залить торрент? | Как скачать Torrent? | Как смотреть и слушать онлайн?  


     Отправить личное сообщение
   
Страница 1 из 1
Показать сообщения за:  Поле сортировки  
Начать новую тему Ответить на тему

   Похожие торренты   Автор   Ответы   Просмотры   Последнее сообщение 
В этой теме нет новых непрочитанных сообщений. Скачать торрент Проверен [TR24][OF] Beck - Dreams (Single) - 2015 (Indie / Alternative)

в форуме Hi-Res stereo (рок), Размер: 128.33 МБ, Здоровье: 100%

Anonymous

0
14|3

18
2

24 авг 2016, 10:28

Anonymous Перейти к последнему сообщению

В этой теме нет новых непрочитанных сообщений. Скачать торрент Проверен Copeland - Ixora (2014) [FLAC|Lossless]<Indie Rock, Alternative, Indie Folk>

в форуме Рок, Панк, Метал, Альтернатива, Размер: 238.16 МБ, Здоровье: 37%

Гость

0
3|8

62
1

06 июн 2015, 13:16

Гость Перейти к последнему сообщению

В этой теме нет новых непрочитанных сообщений. Скачать торрент Проверен Birdy - Live at Baloise Session 2013 [2014, Folk/Indie folk/Indie pop/Indie rock, HDTV 1080i]

в форуме Концерты (HD-Video), Размер: 3.39 ГБ, Здоровье: 0%

Anonymous

0
0|0

30
0

23 окт 2016, 12:26

Anonymous Перейти к последнему сообщению

В этой теме нет новых непрочитанных сообщений. Скачать торрент Проверен [TR24][SM][OF] Mumford & Sons - Babel {Deluxe Edition} - 2012 (Indie Folk, Alternative Country)

в форуме Hi-Res stereo (рок), Размер: 1.42 ГБ, Здоровье: 100%

Anonymous

0
9|3

15
1

23 авг 2016, 20:36

Anonymous Перейти к последнему сообщению

В этой теме нет новых непрочитанных сообщений. Скачать торрент Проверен [TR24][OF] R.E.M. (REM) - Fables of the Reconstruction - 1985/2014 (Rock, Folk, Indie, Pop)

в форуме Hi-Res stereo (рок), Размер: 1.72 ГБ, Здоровье: 100%

Гость

0
7|1

32
1

21 фев 2016, 10:52

Гость Перейти к последнему сообщению



Сейчас этот форум просматривают: нет зарегистрированных пользователей и гости: 1


Вы не можете начинать темы
Вы не можете отвечать на сообщения
Вы не можете редактировать свои сообщения
Вы не можете удалять свои сообщения
Вы не можете добавлять вложения


!ВНИМАНИЕ!
 Ресурс не предоставляет электронные версии произведений, а занимается лишь коллекционированием и каталогизацией ссылок, присылаемых и публикуемых на форуме нашими читателями. Если вы являетесь правообладателем какого-либо представленного материала и не желаете чтобы ссылка на него находилась в нашем каталоге, свяжитесь с нами и мы незамедлительно удалим её. Файлы для обмена на трекере предоставлены пользователями сайта, и администрация не несёт ответственности за их содержание. Просьба не заливать файлы, защищенные авторскими правами, а также файлы нелегального содержания!