На всех торрентах на трекере установлена скидка на скачивание в размере 100 процентов(а).
 Возможность скачивания торрента НЕ зависит от ограничений при низком ратио, низком аплоаде, требуемом ратио или требуемом аплоаде.


Начать новую тему Ответить на тему
Статистика раздачи
Размер: 505.79 МБ | Добавлен: 23 окт 2016, 12:29 | Скачали: 1
Сидеров: 0  [0 байт/сек]    Личеров: 0  [0 байт/сек]
Пред. тема | След. тема 

Автор
Сообщение

СообщениеДобавлено: 23 окт 2016, 12:29 

Ответить с цитатой 

The Sound City Players - Jimmy Kimmel Live (05.03.2013)

Жанр: Rock
Продолжительность: 00:07:31
Год выпуска: 2013
Описание: Выступление Дэйва Грола и Sound City Players 5 марта на популярном телешоу Джимми Киммела в Лос-Анджелесе.
Sound City Players - супергруппа, которую Грол собрал в конце 2012 года для продвижения своего режиссерского дебюта - документальной ленты "Sound City". В состав группы входят музыканты: сам Дэйв Грол (Foo Fighters, Nirvana), Крист Новоселич (Nirvana), Ли Уинг (Fear), Джош Хомм (Queens of The Stone Age), Джон Фогерти (Creedence Clearwater Revival), Рик Спрингфилд и др.

Треклист:
1. John Fogerty & The Sound City Players - Fortunate Son
2. Rick Springfield & Sound City Players - The Man That Never Was
Качество: HDTVRip 720p
Контейнер: MKV
Видео кодек: H.264
Аудио кодек: AC3
Видео: 1280x720, 16:9, 8882 Kbps, 59.940 fps
Аудио: 320 Kbps, 6 ch, 48.0 KHz
Код:
General
Unique ID                                : 199176327065486922703497567375171874458 (0x95D7F71AADFBA8689DF605FEFECD6E9A)
Complete name                            : E:\The.Sound.City.Players.Jimmy.Kimmel.720p.hdtv.x264.mkv
Format                                   : Matroska
Format version                           : Version 4 / Version 2
File size                                : 506 MiB
Duration                                 : 7mn 31s
Overall bit rate                         : 9 389 Kbps
Encoded date                             : UTC 2013-03-18 12:57:35
Writing application                      : mkvmerge v6.1.0 ('Old Devil') built on Mar  2 2013 14:32:37
Writing library                          : libebml v1.3.0 + libmatroska v1.4.0

Video
ID                                       : 1
Format                                   : AVC
Format/Info                              : Advanced Video Codec
Format profile                           : High@L4.1
Format settings, CABAC                   : Yes
Format settings, ReFrames                : 5 frames
Codec ID                                 : V_MPEG4/ISO/AVC
Duration                                 : 7mn 31s
Bit rate                                 : 8 882 Kbps
Width                                    : 1 280 pixels
Height                                   : 720 pixels
Display aspect ratio                     : 16:9
Frame rate mode                          : Constant
Frame rate                               : 60.000 fps
Original frame rate                      : 59.940 fps
Color space                              : YUV
Chroma subsampling                       : 4:2:0
Bit depth                                : 8 bits
Scan type                                : Progressive
Bits/(Pixel*Frame)                       : 0.161
Stream size                              : 478 MiB (95%)
Language                                 : English
Default                                  : No
Forced                                   : No

Audio
ID                                       : 2
Format                                   : AC-3
Format/Info                              : Audio Coding 3
Mode extension                           : CM (complete main)
Format settings, Endianness              : Big
Codec ID                                 : A_AC3
Duration                                 : 7mn 31s
Bit rate mode                            : Constant
Bit rate                                 : 320 Kbps
Channel(s)                               : 6 channels
Channel positions                        : Front: L C R, Side: L R, LFE
Sampling rate                            : 48.0 KHz
Bit depth                                : 16 bits
Compression mode                         : Lossy
Delay relative to video                  : 30ms
Stream size                              : 17.2 MiB (3%)
Default                                  : Yes
Forced                                   : No
загрузка...
Правила, инструкции, FAQ!!!
Торрент  Добавлен [23 окт 2016, 12:29] Скачать торрент
Скачать торрент
[ Размер 5.54 КБ / Просмотров 3 ]

Статус
Проверен 
 
Размер  505.79 МБ
Приватный: Нет (DHT включён)
.torrent скачан  1
Как залить торрент? | Как скачать Torrent? | Как смотреть и слушать онлайн?  


     Отправить личное сообщение
   
Страница 1 из 1
Показать сообщения за:  Поле сортировки  
Начать новую тему Ответить на тему

   Похожие торренты   Автор   Ответы   Просмотры   Последнее сообщение 
В этой теме нет новых непрочитанных сообщений. Скачать торрент Проверен 30 Seconds To Mars - Up In The Air (Jimmy Kimmel Live 21.05.13) [2013, Alternative Rock, HDTVRip 720p]

в форуме Концерты (HD-Video), Размер: 324.3 МБ, Здоровье: 100%

Anonymous

0
2|1

30
0

23 окт 2016, 10:29

Anonymous Перейти к последнему сообщению

В этой теме нет новых непрочитанных сообщений. Скачать торрент Проверен Muse - Follow Me (Jimmy Kimmel Live 20.06.13) [2013, Alternative rock, HDTVRip 720p]

в форуме Концерты (HD-Video), Размер: 162.39 МБ, Здоровье: 100%

Anonymous

0
3|1

29
0

23 окт 2016, 11:26

Anonymous Перейти к последнему сообщению

В этой теме нет новых непрочитанных сообщений. Скачать торрент Проверен Linkin Park(Mike and Chester) with Steve Aoki - A LIGHT THAT NEVER COMES - Jimmy Kimmel Live (26.11.2013) [ABC HD][2013, Alternative Rock, HDTV 720p]

в форуме Концерты (HD-Video), Размер: 473.57 МБ, Здоровье: 100%

Anonymous

0
1|0

38
0

23 окт 2016, 13:58

Anonymous Перейти к последнему сообщению

В этой теме нет новых непрочитанных сообщений. Скачать торрент Проверен Goo Goo Dolls - So Alive & Over and Over (partial) (Live @ Jimmy Kimmel Live! 12.05.2016) (ABC 720p) [2016, Alternative, Rock, Post-Grunge, HDTVRip, 720p]

в форуме Концерты (HD-Video), Размер: 363.31 МБ, Здоровье: 100%

Anonymous

0
1|0

44
0

23 окт 2016, 12:35

Anonymous Перейти к последнему сообщению

В этой теме нет новых непрочитанных сообщений. Скачать торрент Проверен Paul McCartney - New + Lady Madonna (Jimmy Kimmel Live 23.09.13) [2013, Rock, HDTV 720p]

в форуме Концерты (HD-Video), Размер: 404.89 МБ, Здоровье: 50%

Anonymous

0
1|2

18
1

23 окт 2016, 14:19

Anonymous Перейти к последнему сообщению



Сейчас этот форум просматривают: нет зарегистрированных пользователей и гости: 1


Вы не можете начинать темы
Вы не можете отвечать на сообщения
Вы не можете редактировать свои сообщения
Вы не можете удалять свои сообщения
Вы не можете добавлять вложения

Перейти:  

!ВНИМАНИЕ!
 Ресурс не предоставляет электронные версии произведений, а занимается лишь коллекционированием и каталогизацией ссылок, присылаемых и публикуемых на форуме нашими читателями. Если вы являетесь правообладателем какого-либо представленного материала и не желаете чтобы ссылка на него находилась в нашем каталоге, свяжитесь с нами и мы незамедлительно удалим её. Файлы для обмена на трекере предоставлены пользователями сайта, и администрация не несёт ответственности за их содержание. Просьба не заливать файлы, защищенные авторскими правами, а также файлы нелегального содержания!