На всех торрентах на трекере установлена скидка на скачивание в размере 100 процентов(а).
 Возможность скачивания торрента НЕ зависит от ограничений при низком ратио, низком аплоаде, требуемом ратио или требуемом аплоаде.


Начать новую тему Ответить на тему
Статистика раздачи
Размер: 10.94 ГБ | Добавлен: 23 окт 2016, 19:55 | Скачали: 11
Сидеров: 26  [0 байт/сек]    Личеров: 21  [0 байт/сек]
Пред. тема | След. тема 

Автор
Сообщение

СообщениеДобавлено: 23 окт 2016, 19:55 

Ответить с цитатой 

The Rolling Stones From The Vault Hampton Live

Жанр: Rock
Продолжительность: 2:29:51
Год выпуска: 1981

Релиз на BluRay: 4.11.14

Треклист:

01 Under My Thumb
02 When The Whip Comes Down
03 Let s Spend The Night Together
04 Shattered
05 Neighbours
06 Black Limousine
07 Just My Imagination
08 Twenty Flight Rock
09 Going To A Go Go
10 Let Me Go
11 Time Is On My Side
12 Beast Of Burden
13 Waiting On A Friend
14 Let It Bleed
15 You Can t Always Get What You Want
16 Band Introductions
17 Happy Birthday Keith
18 Little T & A
19 Tumbling Dice
20 She s So Cold
21 Hang Fire
22 Miss You
23 Honky Tonk Women
24 Brown Sugar
25 Start Me Up
26 Jumping Jack Flash
27 (I Can t Get No) Satisfaction

Качество: BDRip 1080p
Контейнер: MKV
Видео кодек: H.264
Аудио кодек: DTS
Видео: AVC, 1424X1080, 4:3, 8935 Kbps, 29.97 fps
Аудио: DTS, 1509 Kbps, 48 KHz, 6 ch
Код:
General
Unique ID                                : 233286907303247756637336722953460898159 (0xAF816C8DF175DD6698D5FA24A015D96F)
Complete name                            : F:\The.Rolling.Stones.From.The.Vault.Hampton.Coliseum.Live.In.1981.1080p.mkv
Format                                   : Matroska
Format version                           : Version 4 / Version 2
File size                                : 10.9 GiB
Duration                                 : 2h 29mn
Overall bit rate                         : 10.4 Mbps
Encoded date                             : UTC 2014-11-05 23:49:36
Writing application                      : mkvmerge v7.3.0 ('Nouages') 64bit built on Oct 22 2014 18:53:34
Writing library                          : libebml v1.3.0 + libmatroska v1.4.1
DURATION                                 : 02:29:51.851000000
NUMBER_OF_FRAMES                         : 842986
NUMBER_OF_BYTES                          : 1696087832
_STATISTICS_WRITING_APP                  : mkvmerge v7.3.0 ('Nouages') 64bit built on Oct 22 2014 18:53:34
_STATISTICS_WRITING_DATE_UTC             : 2014-11-05 23:49:36
_STATISTICS_TAGS                         : BPS DURATION NUMBER_OF_FRAMES NUMBER_OF_BYTES

Video
ID                                       : 1
Format                                   : AVC
Format/Info                              : Advanced Video Codec
Format profile                           : High@L4.1
Format settings, CABAC                   : Yes
Format settings, ReFrames                : 4 frames
Codec ID                                 : V_MPEG4/ISO/AVC
Duration                                 : 2h 29mn
Bit rate                                 : 8 935 Kbps
Width                                    : 1 424 pixels
Height                                   : 1 080 pixels
Display aspect ratio                     : 4:3
Frame rate mode                          : Constant
Frame rate                               : 29.970 fps
Color space                              : YUV
Chroma subsampling                       : 4:2:0
Bit depth                                : 8 bits
Scan type                                : Progressive
Bits/(Pixel*Frame)                       : 0.194
Stream size                              : 9.14 GiB (84%)
Writing library                          : x264 core 142 r2479 dd79a61
Encoding settings                        : cabac=1 / ref=4 / deblock=1:0:0 / analyse=0x3:0x133 / me=umh / subme=8 / psy=1 / psy_rd=1.00:0.00 / mixed_ref=1 / me_range=16 / chroma_me=1 / trellis=1 / 8x8dct=1 / cqm=0 / deadzone=21,11 / fast_pskip=0 / chroma_qp_offset=-2 / threads=12 / lookahead_threads=2 / sliced_threads=0 / nr=0 / decimate=1 / interlaced=0 / bluray_compat=0 / constrained_intra=0 / bframes=3 / b_pyramid=2 / b_adapt=1 / b_bias=0 / direct=1 / weightb=1 / open_gop=0 / weightp=2 / keyint=250 / keyint_min=25 / scenecut=40 / intra_refresh=0 / rc_lookahead=40 / rc=2pass / mbtree=1 / bitrate=8935 / ratetol=1.0 / qcomp=0.60 / qpmin=0 / qpmax=69 / qpstep=4 / cplxblur=20.0 / qblur=0.5 / ip_ratio=1.40 / aq=1:1.00
Language                                 : English
Default                                  : Yes
Forced                                   : No
DURATION                                 : 02:29:51.816000000
NUMBER_OF_FRAMES                         : 269485
NUMBER_OF_BYTES                          : 10043202171
_STATISTICS_WRITING_APP                  : mkvmerge v7.3.0 ('Nouages') 64bit built on Oct 22 2014 18:53:34
_STATISTICS_WRITING_DATE_UTC             : 2014-11-05 23:49:36
_STATISTICS_TAGS                         : BPS DURATION NUMBER_OF_FRAMES NUMBER_OF_BYTES

Audio
ID                                       : 2
Format                                   : DTS
Format/Info                              : Digital Theater Systems
Mode                                     : 16
Format settings, Endianness              : Big
Codec ID                                 : A_DTS
Duration                                 : 2h 29mn
Bit rate mode                            : Constant
Bit rate                                 : 1 509 Kbps
Channel(s)                               : 6 channels
Channel positions                        : Front: L C R, Side: L R, LFE
Sampling rate                            : 48.0 KHz
Bit depth                                : 24 bits
Compression mode                         : Lossy
Stream size                              : 1.58 GiB (14%)
Default                                  : Yes
Forced                                   : No

Menu
00:00:00.000                             : en:00:00:00.000
00:06:01.728                             : en:00:06:01.728
00:11:21.748                             : en:00:11:21.748
00:16:43.669                             : en:00:16:43.669
00:21:24.950                             : en:00:21:24.950
00:26:15.007                             : en:00:26:15.007
00:30:38.537                             : en:00:30:38.537
00:34:50.488                             : en:00:34:50.488
00:45:02.700                             : en:00:45:02.700
00:46:49.073                             : en:00:46:49.073
00:50:54.151                             : en:00:50:54.151
00:56:55.912                             : en:00:56:55.912
01:01:15.438                             : en:01:01:15.438
01:09:07.410                             : en:01:09:07.410
01:15:11.307                             : en:01:15:11.307
01:22:21.203                             : en:01:22:21.203
01:31:56.444                             : en:01:31:56.444
01:33:08.516                             : en:01:33:08.516
01:33:44.319                             : en:01:33:44.319
01:37:52.233                             : en:01:37:52.233
01:42:46.460                             : en:01:42:46.460
01:47:11.759                             : en:01:47:11.759
01:50:24.151                             : en:01:50:24.151
01:58:12.385                             : en:01:58:12.385
02:01:54.073                             : en:02:01:54.073
02:05:33.192                             : en:02:05:33.192
02:10:39.432                             : en:02:10:39.432
02:20:38.463                             : en:02:20:38.463


загрузка...
Правила, инструкции, FAQ!!!
Торрент  Добавлен [23 окт 2016, 19:55] Скачать торрент Магнет ссылка
Скачать торрент
[ Размер 27.94 КБ / Просмотров 24 ]

Статус
Проверен 
 
Размер  10.94 ГБ
Приватный: Нет (DHT включён)
.torrent скачан  11
Как залить торрент? | Как скачать Torrent? | Как смотреть и слушать онлайн?  


     Отправить личное сообщение
   
Страница 1 из 1
Показать сообщения за:  Поле сортировки  
Начать новую тему Ответить на тему

   Похожие торренты   Автор   Ответы   Просмотры   Последнее сообщение 
В этой теме нет новых непрочитанных сообщений. Скачать торрент Проверен The Rolling Stones: From The Vault - Hampton Coliseum - Live In 1981 [1981, Rock, BDRip 720p]

в форуме Концерты (HD-Video), Размер: 6.56 ГБ, Здоровье: 100%

Anonymous

0
22|12

85
6

03 май 2015, 22:08

Anonymous Перейти к последнему сообщению

В этой теме нет новых непрочитанных сообщений. Скачать торрент Проверен The Rolling Stones - From The Vault Hampton Coliseum, Live In 1981 [2014, Rock, SDBlu-ray]

в форуме Концерты (HD-Video), Размер: 45.63 ГБ, Здоровье: 100%

Anonymous

0
1|0

16
0

23 окт 2016, 12:51

Anonymous Перейти к последнему сообщению

В этой теме нет новых непрочитанных сообщений. Скачать торрент Проверен (Rock, rhythm and blues) The Rolling Stones - Hampton Coliseum Live 1981 (Officially Authorised Bootlg) - 2012, MP3, 320 kbps

в форуме Classic Rock & Hard Rock, Размер: 313.28 МБ, Здоровье: 100%

Anonymous

0
3|1

13
1

13 ноя 2016, 19:55

Anonymous Перейти к последнему сообщению

В этой теме нет новых непрочитанных сообщений. Скачать торрент Проверен The Rolling Stones - From The Vault - Live in Leeds 1982 [2015, Rock, BDRip 1080p]

в форуме Концерты (HD-Video), Размер: 12.5 ГБ, Здоровье: 70%

Anonymous

0
7|10

87
8

23 окт 2016, 19:50

Anonymous Перейти к последнему сообщению

В этой теме нет новых непрочитанных сообщений. Скачать торрент Проверен The Rolling Stones - From the Vault: The Marquee - Live in 1971 [2015, Rock, BDRip 1080p]

в форуме Концерты (HD-Video), Размер: 6.23 ГБ, Здоровье: 100%

Anonymous

0
67|12

169
11

23 окт 2016, 19:55

Anonymous Перейти к последнему сообщению



Сейчас этот форум просматривают: нет зарегистрированных пользователей и гости: 2


Вы не можете начинать темы
Вы не можете отвечать на сообщения
Вы не можете редактировать свои сообщения
Вы не можете удалять свои сообщения
Вы не можете добавлять вложения


!ВНИМАНИЕ!
 Ресурс не предоставляет электронные версии произведений, а занимается лишь коллекционированием и каталогизацией ссылок, присылаемых и публикуемых на форуме нашими читателями. Если вы являетесь правообладателем какого-либо представленного материала и не желаете чтобы ссылка на него находилась в нашем каталоге, свяжитесь с нами и мы незамедлительно удалим её. Файлы для обмена на трекере предоставлены пользователями сайта, и администрация не несёт ответственности за их содержание. Просьба не заливать файлы, защищенные авторскими правами, а также файлы нелегального содержания!