На всех торрентах на трекере установлена скидка на скачивание в размере 100 процентов(а).
 Возможность скачивания торрента НЕ зависит от ограничений при низком ратио, низком аплоаде, требуемом ратио или требуемом аплоаде.


Начать новую тему Ответить на тему
Статистика раздачи
Размер: 584.77 МБ | Добавлен: 23 окт 2016, 18:28 | Скачали: 3
Сидеров: 172  [0 байт/сек]    Личеров: 79  [0 байт/сек]
Пред. тема | След. тема 

Автор
Сообщение

СообщениеДобавлено: 16 мар 2014, 00:38 

Ответить с цитатой 


The Material
- 2 Альбома





Год выпуска: 2011-2013
Жанр: Alt.Rock | Female Vocal
Продолжительность: 01:18:19
Тип издания: Альбом
Страна: San Diego, California, U.S.



>>> Треклист: <<<
------------------------------------------------------------------------
01. Appearances
02. Stay Here Forever
03. A Bird Without Wings
04. Let You Down
05. This Is Goodbye
06. Interlude
07. What We Are
08. I'd Be Lying
09. A World Outside
10. The Only One
11. I'm Alive
12. What happens Next (Bonus Track)
------------------------------------------------------------------------
>>> Продолжительность: 00:38:19 >>>

Код:
Код:
Exact Audio Copy V1.0 beta 2 from 29. April 2011

EAC extraction logfile from 20. September 2011, 21:42

The Material / What We Are

Used drive  : TSSTcorpDVD+-RW TS-H653B   Adapter: 1  ID: 0

Read mode               : Secure
Utilize accurate stream : Yes
Defeat audio cache      : Yes
Make use of C2 pointers : No

Read offset correction                      : 6
Overread into Lead-In and Lead-Out          : No
Fill up missing offset samples with silence : Yes
Delete leading and trailing silent blocks   : No
Null samples used in CRC calculations       : Yes
Used interface                              : Native Win32 interface for Win NT & 2000
Gap handling                                : Appended to previous track

Used output format              : User Defined Encoder
Selected bitrate                : 768 kBit/s
Quality                         : High
Add ID3 tag                     : No
Command line compressor         : C:\Program Files\Exact Audio Copy\FLAC\FLAC.EXE
Additional command line options : -8 -V -T "ARTIST=%artist%" -T "TITLE=%title%" -T "ALBUM=%albumtitle%" -T "DATE=%year%" -T "TRACKNUMBER=%tracknr%" -T "GENRE=%genre%" -T "PERFORMER=%albuminterpret%" -T "COMPOSER=%composer%" %haslyrics%--tag-from-file=LYRICS

TOC of the extracted CD

     Track |   Start  |  Length  | Start sector | End sector
    ---------------------------------------------------------
        1  |  0:00.00 |  3:15.53 |         0    |    14677
        2  |  3:15.53 |  3:14.65 |     14678    |    29292
        3  |  6:30.43 |  3:35.49 |     29293    |    45466
        4  | 10:06.17 |  3:43.66 |     45467    |    62257
        5  | 13:50.08 |  3:19.29 |     62258    |    77211
        6  | 17:09.37 |  0:27.24 |     77212    |    79260
        7  | 17:36.61 |  3:09.48 |     79261    |    93483
        8  | 20:46.34 |  3:17.52 |     93484    |   108310
        9  | 24:04.11 |  2:42.74 |    108311    |   120534
       10  | 26:47.10 |  4:06.04 |    120535    |   138988
       11  | 30:53.14 |  3:42.70 |    138989    |   155708
       12  | 34:36.09 |  3:43.52 |    155709    |   172485

Track  1

     Filename C:\The Material - What We Are [2011]\01 - Appearances.wav

     Pre-gap length  0:00:02.00

     Peak level 100.0 %
     Extraction speed 4.2 X
     Track quality 100.0 %
     Test CRC 96296591
     Copy CRC 96296591
     Accurately ripped (confidence 1)  [BC123630]  (AR v1)
     Copy OK

Track  2

     Filename C:\The Material - What We Are [2011]\02 - Stay Here Forever.wav

     Peak level 100.0 %
     Extraction speed 3.6 X
     Track quality 99.9 %
     Test CRC 6BB06CA5
     Copy CRC 6BB06CA5
     Accurately ripped (confidence 1)  [EC51BC36]  (AR v1)
     Copy OK

Track  3

     Filename C:\The Material - What We Are [2011]\03 - A Bird Without Wings.wav

     Peak level 100.0 %
     Extraction speed 5.1 X
     Track quality 100.0 %
     Test CRC 9F1BF9ED
     Copy CRC 9F1BF9ED
     Accurately ripped (confidence 1)  [74422B6B]  (AR v1)
     Copy OK

Track  4

     Filename C:\The Material - What We Are [2011]\04 - Let You Down.wav

     Peak level 100.0 %
     Extraction speed 5.5 X
     Track quality 100.0 %
     Test CRC F17C9B21
     Copy CRC F17C9B21
     Accurately ripped (confidence 1)  [812A56A2]  (AR v1)
     Copy OK

Track  5

     Filename C:\The Material - What We Are [2011]\05 - This Is Goodbye.wav

     Peak level 100.0 %
     Extraction speed 5.8 X
     Track quality 100.0 %
     Test CRC 1312CE60
     Copy CRC 1312CE60
     Accurately ripped (confidence 1)  [5F3B7B19]  (AR v1)
     Copy OK

Track  6

     Filename C:\The Material - What We Are [2011]\06 - Interlude.wav

     Peak level 97.6 %
     Extraction speed 2.9 X
     Track quality 100.0 %
     Test CRC D9EC9785
     Copy CRC D9EC9785
     Accurately ripped (confidence 1)  [D48FF9F7]  (AR v1)
     Copy OK

Track  7

     Filename C:\The Material - What We Are [2011]\07 - What We Are.wav

     Peak level 100.0 %
     Extraction speed 6.0 X
     Track quality 100.0 %
     Test CRC A0008EE5
     Copy CRC A0008EE5
     Accurately ripped (confidence 1)  [09F4CBE1]  (AR v1)
     Copy OK

Track  8

     Filename C:\The Material - What We Are [2011]\08 - I'd Be Lying.wav

     Peak level 100.0 %
     Extraction speed 6.3 X
     Track quality 100.0 %
     Test CRC A1DCD77C
     Copy CRC A1DCD77C
     Accurately ripped (confidence 1)  [E2E47E41]  (AR v1)
     Copy OK

Track  9

     Filename C:\The Material - What We Are [2011]\09 - A World Outside.wav

     Peak level 100.0 %
     Extraction speed 4.7 X
     Track quality 99.9 %
     Test CRC 651639AE
     Copy CRC 651639AE
     Accurately ripped (confidence 1)  [F871F595]  (AR v1)
     Copy OK

Track 10

     Filename C:\The Material - What We Are [2011]\10 - The Only One.wav

     Peak level 100.0 %
     Extraction speed 6.9 X
     Track quality 100.0 %
     Test CRC 262124FC
     Copy CRC 262124FC
     Accurately ripped (confidence 1)  [73782832]  (AR v1)
     Copy OK

Track 11

     Filename C:\The Material - What We Are [2011]\11 - I'm Alive.wav

     Peak level 100.0 %
     Extraction speed 7.1 X
     Track quality 100.0 %
     Test CRC 9DCD7741
     Copy CRC 9DCD7741
     Accurately ripped (confidence 1)  [45CD276D]  (AR v1)
     Copy OK

Track 12

     Filename C:\The Material - What We Are [2011]\12 - What happens Next (Bonus Track).wav

     Peak level 100.0 %
     Extraction speed 7.3 X
     Track quality 100.0 %
     Test CRC 855B8641
     Copy CRC 855B8641
     Accurately ripped (confidence 1)  [2C9DA186]  (AR v1)
     Copy OK

All tracks accurately ripped

No errors occurred

End of status report

==== Log checksum 9EBE8D1E9BA8B778D07A87936F13A0546E8B2B175B0F9DA8AAE30A24B345334A ====

Код:
Код:
-----------------------

DON'T MODIFY THIS FILE

-----------------------

PERFORMER: auCDtect Task Manager, ver. 1.5.1RC6 build 1.5.1.7
Copyright (c) 2008-2010 y-soft. All rights reserved
http:/y-soft.org

ANALYZER: auCDtect: CD records authenticity detector, version 0.8.2
Copyright (c) 2004 Oleg Berngardt. All rights reserved.
Copyright (c) 2004 Alexander Djourik. All rights reserved.

FILE: 12. The Material - What happens Next (Bonus Track).flac
  Size: 28684890 Hash: F99ADA9ABC409AE72677B0E8365BA8EB Accuracy: -m0
  Conclusion: CDDA 100%
  Signature: 7DC426D6D02A155335A65EF6ACBF4C0E5036F066
FILE: 11. The Material - I'm Alive.flac
  Size: 25522208 Hash: 0A413F8AECFDFB4E00123E4A435FDC21 Accuracy: -m0
  Conclusion: CDDA 100%
  Signature: D7F2F99D6387FD5BBD7AB144161A5202BA422E67
FILE: 10. The Material - The Only One.flac
  Size: 28627615 Hash: 1DA817CFEB428A8F1A5752F0A61C39E2 Accuracy: -m0
  Conclusion: CDDA 100%
  Signature: 12AFDF75C45C36F69450F0C1E2F726EF0D32D1A4
FILE: 09. The Material - A World Outside.flac
  Size: 21794295 Hash: 5D3D68F37EC07CE3510409305361926B Accuracy: -m0
  Conclusion: CDDA 100%
  Signature: F09FB14880E885404F9C6478276CA64F05E86CB0
FILE: 08. The Material - I'd Be Lying.flac
  Size: 24439735 Hash: 91F138E3B5FFD1AE703B8D788C3081CC Accuracy: -m0
  Conclusion: CDDA 100%
  Signature: 6235F5B2268CC7CD265C935472025332A89BE30B
FILE: 07. The Material - What We Are.flac
  Size: 25487221 Hash: CB56E358902BA1E3543E8BB57FC4CA48 Accuracy: -m0
  Conclusion: CDDA 100%
  Signature: 9D22D8EAA5B1CDE3B9F7B6C72C11F9BDDF55A471
FILE: 06. The Material - Interlude.flac
  Size: 2621827 Hash: 84918A77D674BDBB3431360E582098F0 Accuracy: -m0
  Conclusion: CDDA 99%
  Signature: 9CCDBBCD73C4F96B3B17864092165830046B596B
FILE: 05. The Material - This Is Goodbye.flac
  Size: 25248909 Hash: 8344B64F78499A24361F554A92E44625 Accuracy: -m0
  Conclusion: CDDA 100%
  Signature: F03A21691C6889C40BF0D3AF128053161B2EEA9F
FILE: 04. The Material - Let You Down.flac
  Size: 27046690 Hash: 66CD8D08F9063A17EAE8CC95F0EC7FE8 Accuracy: -m0
  Conclusion: CDDA 100%
  Signature: 6658E600651F3932B5B0743C73C638486B56B1FD
FILE: 03. The Material - A Bird Without Wings.flac
  Size: 27651549 Hash: 4FEA758A852B48E28EB49D368014F4A7 Accuracy: -m0
  Conclusion: CDDA 100%
  Signature: 1A13B70F241259B48A116612FE31C0E41973A729
FILE: 02. The Material - Stay Here Forever.flac
  Size: 25619636 Hash: 8283BA4EA35B39D108C91717CFD7A1D2 Accuracy: -m0
  Conclusion: CDDA 100%
  Signature: 9B0C23339BEA58F5A17DDA57BDFCAE392FA3CC2B
FILE: 01. The Material - Appearances.flac
  Size: 25304153 Hash: 61327900D445038CFDB48C757FE84E26 Accuracy: -m0
  Conclusion: CDDA 100%
  Signature: A1F29F20155DBC6619C2AB54B78EC5B04D2A90E9


#777>>> Треклист: <<<
----------------------------------------------------------------------------
01. Life Vest
02. Born To Make A Sound
03. Tonight I'm Letting Go
04. Running Away
05. Bottles
06. Skin And Bone
07. Gasoline
08. The Great Unknown
09. Love Me Or Leave Me
10. Let Me In Again
11. Chances
----------------------------------------------------------------------------
>>> Продолжительность: 00:40:00 >>>


Код:
Код:
Exact Audio Copy V1.0 beta 3 from 29. August 2011

EAC extraction logfile from 29. April 2013, 20:48

The Material / Everything I Want To Say

Used drive  : HL-DT-STDVD+-RW GH30N   Adapter: 5  ID: 0

Read mode               : Secure
Utilize accurate stream : Yes
Defeat audio cache      : Yes
Make use of C2 pointers : No

Read offset correction                      : 102
Overread into Lead-In and Lead-Out          : No
Fill up missing offset samples with silence : Yes
Delete leading and trailing silent blocks   : No
Null samples used in CRC calculations       : Yes
Used interface                              : Native Win32 interface for Win NT & 2000
Gap handling                                : Appended to previous track

Used output format              : User Defined Encoder
Selected bitrate                : 128 kBit/s
Quality                         : High
Add ID3 tag                     : No
Command line compressor         : C:\Program Files (x86)\Exact Audio Copy\Flac\flac.exe
Additional command line options : -8 -V -T "ARTIST=%artist%" -T "TITLE=%title%" -T "ALBUM=%albumtitle%" -T "DATE=%year%" -T "TRACKNUMBER=%tracknr%" -T "GENRE=%genre%" -T "PERFORMER=%albuminterpret%" -T "COMPOSER=%composer%" %haslyrics%--tag-from-file=LYRICS="%lyricsfile%"%haslyrics% -T "ALBUMARTIST=%albumartist%" -T "DISCNUMBER=%cdnumber%" -T "TOTALDISCS=%totalcds%" -T "TOTALTRACKS=%numtracks%" -T "COMMENT=EAC V1.0 beta 3, Secure Mode, Test & Copy, AccurateRip, FLAC -8" %source% -o %dest%

TOC of the extracted CD

     Track |   Start  |  Length  | Start sector | End sector
    ---------------------------------------------------------
        1  |  0:00.00 |  3:34.69 |         0    |    16118
        2  |  3:34.69 |  4:04.22 |     16119    |    34440
        3  |  7:39.16 |  3:40.38 |     34441    |    50978
        4  | 11:19.54 |  3:43.00 |     50979    |    67703
        5  | 15:02.54 |  4:10.40 |     67704    |    86493
        6  | 19:13.19 |  3:36.27 |     86494    |   102720
        7  | 22:49.46 |  4:06.08 |    102721    |   121178
        8  | 26:55.54 |  0:44.38 |    121179    |   124516
        9  | 27:40.17 |  3:32.05 |    124517    |   140421
       10  | 31:12.22 |  4:23.06 |    140422    |   160152
       11  | 35:35.28 |  4:24.54 |    160153    |   180006

Track  1

     Filename C:\EAC Rips\The Material - Everything I Want To Say (2013) [FLAC]\01 - Life Vest.wav

     Pre-gap length  0:00:02.00

     Peak level 99.1 %
     Extraction speed 1.6 X
     Track quality 100.0 %
     Test CRC 68459CA9
     Copy CRC 68459CA9
     Track not present in AccurateRip database
     Copy OK

Track  2

     Filename C:\EAC Rips\The Material - Everything I Want To Say (2013) [FLAC]\02 - Born To Make A Sound.wav

     Peak level 99.1 %
     Extraction speed 1.8 X
     Track quality 100.0 %
     Test CRC 7FC25162
     Copy CRC 7FC25162
     Track not present in AccurateRip database
     Copy OK

Track  3

     Filename C:\EAC Rips\The Material - Everything I Want To Say (2013) [FLAC]\03 - Tonight I'm Letting Go.wav

     Peak level 99.1 %
     Extraction speed 1.9 X
     Track quality 100.0 %
     Test CRC 663AC4E6
     Copy CRC 663AC4E6
     Track not present in AccurateRip database
     Copy OK

Track  4

     Filename C:\EAC Rips\The Material - Everything I Want To Say (2013) [FLAC]\04 - Running Away.wav

     Peak level 99.1 %
     Extraction speed 2.1 X
     Track quality 100.0 %
     Test CRC 76E006B7
     Copy CRC 76E006B7
     Track not present in AccurateRip database
     Copy OK

Track  5

     Filename C:\EAC Rips\The Material - Everything I Want To Say (2013) [FLAC]\05 - Bottles.wav

     Peak level 99.1 %
     Extraction speed 2.2 X
     Track quality 100.0 %
     Test CRC 7F1FD98C
     Copy CRC 7F1FD98C
     Track not present in AccurateRip database
     Copy OK

Track  6

     Filename C:\EAC Rips\The Material - Everything I Want To Say (2013) [FLAC]\06 - Skin And Bone.wav

     Peak level 99.1 %
     Extraction speed 2.3 X
     Track quality 100.0 %
     Test CRC 6A1C9050
     Copy CRC 6A1C9050
     Track not present in AccurateRip database
     Copy OK

Track  7

     Filename C:\EAC Rips\The Material - Everything I Want To Say (2013) [FLAC]\07 - Gasoline.wav

     Peak level 99.1 %
     Extraction speed 2.5 X
     Track quality 100.0 %
     Test CRC FAC5FB37
     Copy CRC FAC5FB37
     Track not present in AccurateRip database
     Copy OK

Track  8

     Filename C:\EAC Rips\The Material - Everything I Want To Say (2013) [FLAC]\08 - The Great Unknown.wav

     Peak level 98.8 %
     Extraction speed 1.0 X
     Track quality 99.7 %
     Test CRC C9D5D760
     Copy CRC C9D5D760
     Track not present in AccurateRip database
     Copy OK

Track  9

     Filename C:\EAC Rips\The Material - Everything I Want To Say (2013) [FLAC]\09 - Love Me Or Leave Me.wav

     Peak level 99.1 %
     Extraction speed 2.6 X
     Track quality 100.0 %
     Test CRC 41B70AC2
     Copy CRC 41B70AC2
     Track not present in AccurateRip database
     Copy OK

Track 10

     Filename C:\EAC Rips\The Material - Everything I Want To Say (2013) [FLAC]\10 - Let Me In Again.wav

     Peak level 99.1 %
     Extraction speed 2.7 X
     Track quality 100.0 %
     Test CRC D42E805E
     Copy CRC D42E805E
     Track not present in AccurateRip database
     Copy OK

Track 11

     Filename C:\EAC Rips\The Material - Everything I Want To Say (2013) [FLAC]\11 - Chances.wav

     Peak level 99.1 %
     Extraction speed 2.8 X
     Track quality 100.0 %
     Test CRC 3D7B7882
     Copy CRC 3D7B7882
     Track not present in AccurateRip database
     Copy OK

None of the tracks are present in the AccurateRip database

No errors occurred

End of status report

---- CUETools DB Plugin V2.1.3

[CTDB TOCID: fEG5iMNnllZMVSdwIULmi8paLd0-] found, Submit result: fEG5iMNnllZMVSdwIULmi8paLd0- has been confirmed
[288e712a] (2/2) Accurately ripped

==== Log checksum 08BB5B095576DA0D14FE4A8E81A22AD55CDA19906110D20231D714079174ED07 ====


Код:
Код:
-----------------------

DON'T MODIFY THIS FILE

-----------------------

PERFORMER: auCDtect Task Manager, ver. 1.5.1RC6 build 1.5.1.7
Copyright (c) 2008-2010 y-soft. All rights reserved
http:/y-soft.org

ANALYZER: auCDtect: CD records authenticity detector, version 0.8.2
Copyright (c) 2004 Oleg Berngardt. All rights reserved.
Copyright (c) 2004 Alexander Djourik. All rights reserved.

FILE: 11. The Material - Chances.flac
  Size: 34528476 Hash: B5390CC62C1D9D73DEF7D7EBF2932CFD Accuracy: -m0
  Conclusion: CDDA 100%
  Signature: C213D31676D498B1DB2369CC7A5451F8D41A50EA
FILE: 10. The Material - Let Me In Again.flac
  Size: 34026466 Hash: 143DCE5ECF7DFA72D36AE6841D5B53C9 Accuracy: -m0
  Conclusion: CDDA 100%
  Signature: D098EFD71E0D43E0A794B3BFAC31A22C4DE9D10B
FILE: 09. The Material - Love Me Or Leave Me.flac
  Size: 27638622 Hash: 8275E0155EF6CF5FA0F62E339706BFC8 Accuracy: -m0
  Conclusion: CDDA 100%
  Signature: 958E2DF45722369E805A4DB0582FAF609E77EFB2
FILE: 08. The Material - The Great Unknown.flac
  Size: 3876389 Hash: 20886894411C64FD44D824F0ABB1ED1E Accuracy: -m0
  Conclusion: CDDA 100%
  Signature: CFC84CF512521E6D93B9F4DD47EB5948E676FAF1
FILE: 07. The Material - Gasoline.flac
  Size: 34008991 Hash: 92ED096FFA3E2A5D88A514C85E09B679 Accuracy: -m0
  Conclusion: CDDA 100%
  Signature: 3157226550AEC9E92D010CADCA41494F718FFF1E
FILE: 06. The Material - Skin And Bone.flac
  Size: 29593262 Hash: D3E601109C2EF20AD162330F908D1430 Accuracy: -m0
  Conclusion: CDDA 100%
  Signature: 6A2BD18462650F802D107A23CA0E10E3E8F9181D
FILE: 05. The Material - Bottles.flac
  Size: 31623412 Hash: D9C4062991794EF415602D02B5476B5C Accuracy: -m0
  Conclusion: CDDA 100%
  Signature: 2D2C1BF7019C662C48AD2584067F8759BD8191F9
FILE: 04. The Material - Running Away.flac
  Size: 29735620 Hash: 1042C1C74569F7E24BA5DFD375B072EA Accuracy: -m0
  Conclusion: CDDA 100%
  Signature: 955D597F30223AF6672F956F1F9A87B7BA0018A0
FILE: 03. The Material - Tonight I'm Letting Go.flac
  Size: 29110146 Hash: F6FF0993A96D29E98383CF5F8B0D94F3 Accuracy: -m0
  Conclusion: CDDA 100%
  Signature: BCFDAF23509384EEE71EFF1A8DD2AA97407BB718
FILE: 02. The Material - Born To Make A Sound.flac
  Size: 33291457 Hash: 3A454D2F76FE35BAEF2CC277E4732369 Accuracy: -m0
  Conclusion: CDDA 100%
  Signature: E771457F16DA96A9C2CBE0E0BADA2A09992F259C
FILE: 01. The Material - Life Vest.flac
  Size: 28522142 Hash: 99DCE559D1D86459B43C1A2EACCA9323 Accuracy: -m0
  Conclusion: CDDA 100%
  Signature: BB812105BF8A3D7C51024CA2A143048027BAC087





Тип рипа: Tracks+.cue
Аудиокодек: FLAC
Битрейт аудио: lossless


Время раздачи: 08.00-00.00
загрузка...
Правила, инструкции, FAQ!!!
Торрент  Добавлен [23 окт 2016, 18:28] Скачать торрент Магнет ссылка
Скачать торрент
[ Размер 15.03 КБ / Просмотров 66 ]

Статус
Обновлён Bionik (23 окт 2016, 18:31)
 
Размер  584.77 МБ
Приватный: Нет (DHT включён)
.torrent скачан  3
Как залить торрент? | Как скачать Torrent? | Ошибка в торренте? Качайте магнет  


     Отправить личное сообщение
   

СообщениеДобавлено: 23 окт 2016, 15:00 

Ответить с цитатой 

Зарегистрированные пользователи
Зарегистрированные пользователи

Стаж: 2 года 7 дней
Раздал: 274.88 МБ
Скачал: 0 байт
Ратио: Seed.
Торренты: 0
Не скачивается!За две недели не 1% :ac:


Профиль     Отправить личное сообщение
   

СообщениеДобавлено: 23 окт 2016, 18:33 

Ответить с цитатой 

Администратор
Администратор
Аватара пользователя

Стаж: 5 лет 11 месяцев 30 дней
Раздал: 290.97 ГБ
Скачал: 158.38 ГБ
Ратио: 1.837
Торренты: 10
обновил торрент-файл

_________________
Не скачивается раздача? напишите об этом в теме!


Профиль     Отправить личное сообщение
   

СообщениеДобавлено: 24 окт 2016, 19:31 

Ответить с цитатой 

Зарегистрированные пользователи
Зарегистрированные пользователи

Стаж: 2 года 7 дней
Раздал: 274.88 МБ
Скачал: 0 байт
Ратио: Seed.
Торренты: 0
Работает,спасибо.Скачал :ay:


Профиль     Отправить личное сообщение
   
Страница 1 из 1
Показать сообщения за:  Поле сортировки  
Начать новую тему Ответить на тему

   Похожие торренты   Автор   Ответы   Просмотры   Последнее сообщение 
В этой теме нет новых непрочитанных сообщений. Скачать торрент Проверен (Indie Rock /Alternative Rock / Female Vocal) The Material - (Tomorrow [EP] (2007),To Weather The Storm [EP] (2009),Acoustic Sessions [EP] (2010),What We Are (2011) MP3, 128-320 kbps

в форуме Alternative & Nu-metal, Размер: 187.3 МБ, Здоровье: 100%

Anonymous

0
5|1

4
0

29 июл 2018, 14:44

Anonymous Перейти к последнему сообщению

В этой теме нет новых непрочитанных сообщений. Скачать торрент The Letter Black - 2 Альбома (2010-2013) [FLAC|Lossless]<Alt. Metal | Alt. Rock | Female Vocal>

в форуме Рок, Панк, Метал, Альтернатива, Размер: 697.25 МБ, Здоровье: 100%

Anonymous

0
2|1

131
2

16 мар 2014, 00:55

Anonymous Перейти к последнему сообщению

В этой теме нет новых непрочитанных сообщений. Скачать торрент Tonight Alive - 2 Альбома+3 EP (2010-2013) [FLAC|Lossless]<Alternative Rock | Pop Punk | Female Vocal>

в форуме Рок, Панк, Метал, Альтернатива, Размер: 1.11 ГБ, Здоровье: 80%

Anonymous

0
4|5

222
2

16 мар 2014, 00:52

Anonymous Перейти к последнему сообщению

В этой теме нет новых непрочитанных сообщений. Скачать торрент Проверен (Alternative Rock / Pop-Punk/ Female Vocal) [CD] New Years Day - Коллекция (3 альбома, 4 ЕР) - 2005-2013, FLAC (tracks+.cue), lossless

в форуме Alternative & Nu-metal, Размер: 1.21 ГБ, Здоровье: 100%

Anonymous

0
1|0

35
0

24 фев 2017, 22:43

Anonymous Перейти к последнему сообщению

В этой теме нет новых непрочитанных сообщений. Скачать торрент Проверен (Alternative Rock/Female Vocals) The Material - Everything I Want To Say - 2013, MP3, 320 kbps

в форуме Alternative & Nu-metal, Размер: 92.16 МБ, Здоровье: 0%

Anonymous

0
0|0

2
0

29 июл 2018, 14:44

Anonymous Перейти к последнему сообщению



Сейчас этот форум просматривают: нет зарегистрированных пользователей и гости: 0


Вы не можете начинать темы
Вы не можете отвечать на сообщения
Вы не можете редактировать свои сообщения
Вы не можете удалять свои сообщения
Вы не можете добавлять вложения

Перейти:  
Ресурс не предоставляет электронные версии произведений, а занимается лишь коллекционированием и каталогизацией ссылок, присылаемых и публикуемых на форуме нашими читателями. Если вы являетесь правообладателем какого-либо представленного материала и не желаете чтобы ссылка на него находилась в нашем каталоге, свяжитесь с нами и мы незамедлительно удалим её. Файлы для обмена на трекере предоставлены пользователями сайта, и администрация не несёт ответственности за их содержание. Просьба не заливать файлы, защищенные авторскими правами, а также файлы нелегального содержания!
cron