На всех торрентах на трекере установлена скидка на скачивание в размере 100 процентов(а).
 Возможность скачивания торрента НЕ зависит от ограничений при низком ратио, низком аплоаде, требуемом ратио или требуемом аплоаде.


Начать новую тему Ответить на тему
Статистика раздачи
Размер: 1.46 ГБ | Добавлен: 05 июл 2014, 23:47 | Скачали: 0
Сидеров: 8  [0 байт/сек]    Личеров: 1  [0 байт/сек]
Пред. тема | След. тема 

Автор
Сообщение

СообщениеДобавлено: 05 июл 2014, 23:47 

Ответить с цитатой 

Тени забытых предков / Тіні забутих предків (1964) DVDRip

Год выпуска: 1964
Жанр: Драма, Мелодрама

Описание фильма:
Два гуцульских рода враждуют многие годы. Среди озлобленности и мести зарождается чистая, светлая любовь Ивана и Марички, относящихся к враждующим родам. Иван вынужден был уйти на заработки, в это время Маричка гибнет в речной пучине. Иван пытается забыть любимую, но у него это не получается. Не помогает и женитьба на красивой Палагне. Только в предсмертном бреду Иван вновь обретает своё счастье...

Режиссер: Сергей Параджанов
Актеры: Иван Миколайчук, Лариса Кадочникова, Татьяна Бестаева, Спартак Багашвили, Николай Гринько, Леонид Енгибаров, Нина Алисова, Александр Гай, Неонила Гнеповская, Александр Райданов


Дата мировой премьеры: 29.04.1966

Продолжительность: 01:31:43
Перевод: Многоголосый закадровый + оригинальная дорожка(укр.)

Видеокодек: DivX 4/5/6
Битрейт видео: ~1 681 Kbps, 4:3, 25.000 fps
Размер кадра: 672 x 496
Качество видео: DVDRip
Аудиокодек: AC3
Битрейт аудио:
AC-3, 6 channels, 3/2.1, 448 Kbps, 48.0 KHz (русский закадровый)
AC-3, mono, 128 Kbps, 48.0 KHz (оригинальный)
Код:
Код:
General
Complete name                    : E:\Кино Музыка\Видео\Тiнi забутих предкiв\Тіні забутих предків.avi
Format                           : AVI
Format/Info                      : Audio Video Interleave
File size                        : 1.46 GiB
Duration                         : 1h 31mn
Overall bit rate                 : 2 272 Kbps
Writing application              : VirtualDubMod 1.5.10.2 (build 2540/release)
Writing library                  : VirtualDubMod build 2540/release

Video
ID                               : 0
Format                           : MPEG-4 Visual
Format settings, BVOP            : Yes
Format settings, QPel            : No
Format settings, GMC             : No warppoints
Format settings, Matrix          : Default (MPEG)
Muxing mode                      : Packed bitstream
Codec ID                         : DX50
Codec ID/Hint                    : DivX 5
Duration                         : 1h 31mn
Bit rate                         : 1 681 Kbps
Width                            : 672 pixels
Height                           : 496 pixels
Display aspect ratio             : 4:3
Frame rate                       : 25.000 fps
Resolution                       : 8 bits
Colorimetry                      : 4:2:0
Scan type                        : Progressive
Bits/(Pixel*Frame)               : 0.202
Stream size                      : 1.08 GiB (74%)
Writing library                  : DivX 6.8.2 (UTC 2008-05-17)

Audio #1
ID                               : 1
Format                           : AC-3
Format/Info                      : Audio Coding 3
Codec ID                         : 2000
Duration                         : 1h 31mn
Bit rate mode                    : Constant
Bit rate                         : 448 Kbps
Channel(s)                       : 6 channels
Channel positions                : Front: L C R, Side: L R, LFE
Sampling rate                    : 48.0 KHz
Stream size                      : 294 MiB (20%)
Alignment                        : Split accross interleaves
Interleave, duration             : 40 ms (1.00 video frame)
Interleave, preload duration     : 500 ms

Audio #2
ID                               : 2
Format                           : AC-3
Format/Info                      : Audio Coding 3
Codec ID                         : 2000
Duration                         : 1h 31mn
Bit rate mode                    : Constant
Bit rate                         : 128 Kbps
Channel(s)                       : 1 channel
Channel positions                : Front: C
Sampling rate                    : 48.0 KHz
Stream size                      : 84.0 MiB (6%)
Alignment                        : Split accross interleaves
Interleave, duration             : 40 ms (1.00 video frame)
Interleave, preload duration     : 500 ms
Скриншоты:
загрузка...
Правила, инструкции, FAQ!!!
Торрент  Добавлен [05 июл 2014, 23:47] Скачать торрент Магнет ссылка
Скачать торрент
[ Размер 15.32 КБ / Просмотров 18 ]

Статус
Проверен 
 
Размер  1.46 ГБ
Приватный: Нет (DHT включён)
.torrent скачан  0
Как залить торрент? | Как скачать Torrent? | Как смотреть и слушать онлайн?  


     Отправить личное сообщение
   
Страница 1 из 1
Показать сообщения за:  Поле сортировки  
Начать новую тему Ответить на тему

   Похожие торренты   Автор   Ответы   Просмотры   Последнее сообщение 
В этой теме нет новых непрочитанных сообщений. Скачать торрент Проверен (Post Punk) Аненербе (Anenerbe) - Тени забытых предков - 2009, MP3 (tracks), 320 kbps

в форуме Русский Рок, Размер: 99.95 МБ, Здоровье: 0%

Anonymous

0
0|0

15
0

22 авг 2016, 02:28

Anonymous Перейти к последнему сообщению

В этой теме нет новых непрочитанных сообщений. Скачать торрент Проверен (Meditative) Митя Кузнецов - АМЕРИКА - Небо забытых предков - 2006, FLAC (image+.cue), lossless

в форуме Instrumental/New Age/Meditative/Relax, Размер: 236.18 МБ, Здоровье: 0%

Anonymous

0
0|0

11
0

06 янв 2017, 18:05

Anonymous Перейти к последнему сообщению

В этой теме нет новых непрочитанных сообщений. Скачать торрент Проверен В тени / Under the Shadow (2016) DVDRip | L1

в форуме Ужасы, Размер: 1.35 ГБ, Здоровье: 100%

Гость

0
40|3

253
104

12 дек 2016, 20:53

Гость Перейти к последнему сообщению

В этой теме нет новых непрочитанных сообщений. Скачать торрент Проверен Чем мы занимаемся в тени / What We Do In The Shadows (2014) DVDRip | P2

в форуме Комедии, Размер: 1.46 ГБ, Здоровье: 100%

Гость

0
5|1

122
1

02 дек 2014, 23:55

Гость Перейти к последнему сообщению

В этой теме нет новых непрочитанных сообщений. Скачать торрент Проверен [TR24][OF] Jacques Brel - Olympia 1964 (a.k.a. Enregistrement Public a l'Olympia 1964) - 1964/2016 (Pop, Vocal, French Chanson)

в форуме Hi-Res stereo (Поп), Размер: 1.07 ГБ, Здоровье: 100%

Anonymous

0
7|0

15
1

01 июл 2017, 08:34

Anonymous Перейти к последнему сообщению



Сейчас этот форум просматривают: нет зарегистрированных пользователей и гости: 0


Вы не можете начинать темы
Вы не можете отвечать на сообщения
Вы не можете редактировать свои сообщения
Вы не можете удалять свои сообщения
Вы не можете добавлять вложения

Перейти:  

!ВНИМАНИЕ!
 Ресурс не предоставляет электронные версии произведений, а занимается лишь коллекционированием и каталогизацией ссылок, присылаемых и публикуемых на форуме нашими читателями. Если вы являетесь правообладателем какого-либо представленного материала и не желаете чтобы ссылка на него находилась в нашем каталоге, свяжитесь с нами и мы незамедлительно удалим её. Файлы для обмена на трекере предоставлены пользователями сайта, и администрация не несёт ответственности за их содержание. Просьба не заливать файлы, защищенные авторскими правами, а также файлы нелегального содержания!