На всех торрентах на трекере установлена скидка на скачивание в размере 100 процентов(а).
 Возможность скачивания торрента НЕ зависит от ограничений при низком ратио, низком аплоаде, требуемом ратио или требуемом аплоаде.


Начать новую тему Ответить на тему
Статистика раздачи
Размер: 317.51 МБ | Добавлен: 31 авг 2016, 18:35 | Скачали: 0
Сидеров: 0  [0 байт/сек]    Личеров: 0  [0 байт/сек]
Пред. тема | След. тема 

Автор
Сообщение

СообщениеДобавлено: 31 авг 2016, 18:35 

Raison De Plus / Au Bout Du Couloir
Жанр: Symphonic Prog
Год издания диска: 1995
Издатель (лейбл): Musea Records
Номер по каталогу: FGBG 4168.AR
Страна: France
Аудиокодек: FLAC (*.flac)
Тип рипа: tracks+.cue
Битрейт аудио: lossless
Продолжительность: 0:47:09
Источник (релизер): NNM (pepe26), рип - pepe
Наличие сканов в содержимом раздачи: да
Треклист:

1 - Ouverture (3'40)
2 - Fer Et Flammes (4'51)
3 - A La Recherche... (3'41)
4 - Le Prisonnier (3'47)
5 - Qui Est L'Assassin ? (4'30)
6 - C'Est Dans L'Air (4'08)
7 - Automne (1'36)
8 - Huitième Ciel (4'22)
9 - Au Bout Du Couloir (4'58)
10 - Chasse A L'Animal (5'15)
11 - Après La Bataille (5'46)
|| progarchives.com || myspace.com || ||
Код:
EAC extraction logfile from 9. July 2008, 0:23 for CD
Raison De Plus / Au bout du Couloir

Used drive  : HL-DT-STDVD-RW GSA-H11N   Adapter: 1  ID: 0
Read mode   : Secure with NO C2, accurate stream, disable cache
Read offset correction : 667
Overread into Lead-In and Lead-Out : No

Used output format : C:\Users\Pepe\Downloads\Flac\flac-1.1.4-win\bin\flac.exe   (User Defined Encoder)
                     320 kBit/s
                     Additional command line options : -8 -V -T "artist=%a" -T "title=%t" -T "album=%g" -T "date=%y" -T "tracknumber=%n" -T "genre=%m" %s

Other options      :
    Fill up missing offset samples with silence : Yes
    Delete leading and trailing silent blocks : No
    Native Win32 interface for Win NT & 2000

Track  1
     Filename C:\Users\Pepe\Documents\Azureus Downloads\Raison De Plus - Au Bout Du Couloir (1995)\01 - Overture.wav

     Pre-gap length  0:00:02.30

     Peak level 100.0 %
     Track quality 100.0 %
     Test CRC 27E1505B
     Copy CRC 27E1505B
     Copy OK

Track  2
     Filename C:\Users\Pepe\Documents\Azureus Downloads\Raison De Plus - Au Bout Du Couloir (1995)\02 - Fer Et Flammes.wav

     Peak level 97.1 %
     Track quality 99.9 %
     Test CRC AB3DAC34
     Copy CRC AB3DAC34
     Copy OK

Track  3
     Filename C:\Users\Pepe\Documents\Azureus Downloads\Raison De Plus - Au Bout Du Couloir (1995)\03 - A La Recherche.wav

     Peak level 100.0 %
     Track quality 100.0 %
     Test CRC 98B9695D
     Copy CRC 98B9695D
     Copy OK

Track  4
     Filename C:\Users\Pepe\Documents\Azureus Downloads\Raison De Plus - Au Bout Du Couloir (1995)\04 - Le Prisonnier.wav

     Peak level 100.0 %
     Track quality 100.0 %
     Test CRC 45DB6F00
     Copy CRC 45DB6F00
     Copy OK

Track  5
     Filename C:\Users\Pepe\Documents\Azureus Downloads\Raison De Plus - Au Bout Du Couloir (1995)\05 - Quiest L'Assassm.wav

     Peak level 100.0 %
     Track quality 100.0 %
     Test CRC C0CB00A1
     Copy CRC C0CB00A1
     Copy OK

Track  6
     Filename C:\Users\Pepe\Documents\Azureus Downloads\Raison De Plus - Au Bout Du Couloir (1995)\06 - C'est Dans L'air.wav

     Peak level 100.0 %
     Track quality 100.0 %
     Test CRC 70D1EFE0
     Copy CRC 70D1EFE0
     Copy OK

Track  7
     Filename C:\Users\Pepe\Documents\Azureus Downloads\Raison De Plus - Au Bout Du Couloir (1995)\07 - Automne.wav

     Peak level 100.0 %
     Track quality 100.0 %
     Test CRC 4F75422F
     Copy CRC 4F75422F
     Copy OK

Track  8
     Filename C:\Users\Pepe\Documents\Azureus Downloads\Raison De Plus - Au Bout Du Couloir (1995)\08 - Huitieme.wav

     Peak level 100.0 %
     Track quality 100.0 %
     Test CRC 0927A83B
     Copy CRC 0927A83B
     Copy OK

Track  9
     Filename C:\Users\Pepe\Documents\Azureus Downloads\Raison De Plus - Au Bout Du Couloir (1995)\09 - Au Bout Du Couloir.wav

     Peak level 100.0 %
     Track quality 99.9 %
     Test CRC 3364FE09
     Copy CRC 3364FE09
     Copy OK

Track 10
     Filename C:\Users\Pepe\Documents\Azureus Downloads\Raison De Plus - Au Bout Du Couloir (1995)\10 - Chassea L'animal.wav

     Peak level 100.0 %
     Track quality 99.9 %
     Test CRC 5A7D3B80
     Copy CRC 5A7D3B80
     Copy OK

Track 11
     Filename C:\Users\Pepe\Documents\Azureus Downloads\Raison De Plus - Au Bout Du Couloir (1995)\11 - Apres La Bataille.wav

     Peak level 100.0 %
     Track quality 100.0 %
     Test CRC FB7FC9BB
     Copy CRC FB7FC9BB
     Copy OK

No errors occured

End of status report
Код:
REM GENRE Progressive
REM DATE 1995
REM DISCID 820B0D0B
REM COMMENT "ExactAudioCopy v0.95b4"
PERFORMER "Raison De Plus"
TITLE "Au bout du Couloir"
FILE "01 - Overture.wav" WAVE
  TRACK 01 AUDIO
    TITLE "Overture"
    PERFORMER "Raison De Plus"
    PREGAP 00:00:30
    INDEX 01 00:00:00
FILE "02 - Fer Et Flammes.wav" WAVE
  TRACK 02 AUDIO
    TITLE "Fer Et Flammes"
    PERFORMER "Raison De Plus"
    INDEX 01 00:00:00
FILE "03 - A La Recherche.wav" WAVE
  TRACK 03 AUDIO
    TITLE "A La Recherche"
    PERFORMER "Raison De Plus"
    INDEX 01 00:00:00
FILE "04 - Le Prisonnier.wav" WAVE
  TRACK 04 AUDIO
    TITLE "Le Prisonnier"
    PERFORMER "Raison De Plus"
    INDEX 01 00:00:00
FILE "05 - Quiest L'Assassm.wav" WAVE
  TRACK 05 AUDIO
    TITLE "Quiest L'Assassm"
    PERFORMER "Raison De Plus"
    INDEX 01 00:00:00
FILE "06 - C'est Dans L'air.wav" WAVE
  TRACK 06 AUDIO
    TITLE "C'est Dans L'air"
    PERFORMER "Raison De Plus"
    INDEX 01 00:00:00
FILE "07 - Automne.wav" WAVE
  TRACK 07 AUDIO
    TITLE "Automne"
    PERFORMER "Raison De Plus"
    INDEX 01 00:00:00
FILE "08 - Huitieme.wav" WAVE
  TRACK 08 AUDIO
    TITLE "Huitieme"
    PERFORMER "Raison De Plus"
    INDEX 01 00:00:00
FILE "09 - Au Bout Du Couloir.wav" WAVE
  TRACK 09 AUDIO
    TITLE "Au Bout Du Couloir"
    PERFORMER "Raison De Plus"
    INDEX 01 00:00:00
FILE "10 - Chassea L'animal.wav" WAVE
  TRACK 10 AUDIO
    TITLE "Chassea L'animal"
    PERFORMER "Raison De Plus"
    INDEX 01 00:00:00
FILE "11 - Apres La Bataille.wav" WAVE
  TRACK 11 AUDIO
    TITLE "Apres La Bataille"
    PERFORMER "Raison De Plus"
    INDEX 01 00:00:00
Код:
-----------------------

DON'T MODIFY THIS FILE

-----------------------

PERFORMER: auCDtect Task Manager, ver. 1.5.1RC4 build 1.5.1.5
Copyright (c) 2008-2010 y-soft. All rights reserved
[url=http://y-soft.org]http://y-soft.org[/url]

ANALYZER: auCDtect: CD records authenticity detector, version 0.8.2
Copyright (c) 2004 Oleg Berngardt. All rights reserved.
Copyright (c) 2004 Alexander Djourik. All rights reserved.

FILE: 05 - Quiest L'Assassm.flac
  Size: 30141459 Hash: E62EE50A86F10B70B13B9E4BA03360AE Accuracy: -m0
  Conclusion: CDDA 100%
  Signature: B01274CAD63F99A720995265D8D64D5239258327
FILE: 04 - Le Prisonnier.flac
  Size: 26068147 Hash: 3DC5B8FE263950DB988010FF1A96BF75 Accuracy: -m0
  Conclusion: CDDA 100%
  Signature: 22599CAF43D78F318B34DA14B26B88E804B2552F
FILE: 03 - A La Recherche.flac
  Size: 26394449 Hash: 171366670054AB707431D66BCCDE3D78 Accuracy: -m0
  Conclusion: CDDA 100%
  Signature: 6D5AD0CC760F7D40EAF518D05B036682414BCB60
FILE: 02 - Fer Et Flammes.flac
  Size: 35242909 Hash: 31C114DD6C25FB4F94701A287F78AE3D Accuracy: -m0
  Conclusion: CDDA 100%
  Signature: 2DA63FDD7D2D52FC792AE12F355CDBB89B5711DC
FILE: 01 - Overture.flac
  Size: 23282872 Hash: D0226EEA269380C0AB5954753F9678C7 Accuracy: -m0
  Conclusion: CDDA 100%
  Signature: 50526B639BC1F1302677A9C64B835F9A4DE4A392
FILE: 11 - Apres La Bataille.flac
  Size: 38093892 Hash: 4CEA73499039B6CFD7BFEAC1D5CB0622 Accuracy: -m0
  Conclusion: CDDA 100%
  Signature: 650F721E9FB2D8FF5FEEE768C68B91442722595D
FILE: 10 - Chassea L'animal.flac
  Size: 37789250 Hash: 312DBB90F4670B77893188F54AE4966F Accuracy: -m0
  Conclusion: CDDA 100%
  Signature: 1F1FCC4C79489389611C4B7B5D9EC8F90681D52A
FILE: 09 - Au Bout Du Couloir.flac
  Size: 34869438 Hash: 0D43FABE60B07ABE81C9459137AE6859 Accuracy: -m0
  Conclusion: CDDA 100%
  Signature: B87A4BE3878F48F547DDB8AB12225682C95DAAE9
FILE: 08 - Huitieme.flac
  Size: 33592892 Hash: 38E7D09E3B5AE53E09BB99F8679D1CE6 Accuracy: -m0
  Conclusion: CDDA 100%
  Signature: 85200564879D601D6C90C9C8363A3CD0773667FA
FILE: 07 - Automne.flac
  Size: 8364002 Hash: A18DCDB037A1199BFE99D6A695462422 Accuracy: -m0
  Conclusion: CDDA 100%
  Signature: 1F5E3AC6A121F9913F52380AFD079C2EC68901FE
FILE: 06 - C'est Dans L'air.flac
  Size: 30998492 Hash: A5851FA2BD646CF84FF44A7A40338FA8 Accuracy: -m0
  Conclusion: CDDA 100%
  Signature: A80DA53249A062EB951F6A416C682D139B72FDDD
Raison De Plus biography
The Symphonic Prog band Raison de Plus was discovered in 1987 by the growing fanbase on the popular compilation album "Enchantement". The band from Nancy, Lorraine released their debut album in 1995, Au Bout Du Couloir, and Ici Est Ailleurs was released in 2001. The long hiatus between albums is noteable as the band have had a sporadic existence, known in France for their live performances rather than new album material. Their second album is more polished in terms of production quality and is somewhat of a conceptual album. The lyrics are characteristically sung in French, true to their homeland, and sung with energy overlayed by soft symphonic ambience and beauty. The analog keyboard features along with striking passages of flute, with strong percussive rhythm and bass. The emotional guitar solos are performed with finesse as are the lengthy keyboard segments. There are instrumental breaks where the band have a chance to showcase their talents, and the lyrics are pastoral and have a calm resonance. There are narrative voices that drive the music forward and stirring dreamy soundscapes to soothe the soul. The sound is similar to Elixir or Ange.
Raison De Plus official website
Excellent art work and an almost forgotten French band who released two albums through Musea some full-moons ago. This is their debut album. An album rooted in both symphonic prog and in particular; neo-prog. The sound on this album is most certainly neo-prog. The vocals are in French though and Ange comes in as a natural reference. Raison De Plus has not gone as theatrical as Ange though. Raison De Plus also sounds a lot more British neo- prog and symphonic than their French counterparts. Raison De Plus also have a lot of references to Camel in their sound. But their music is far more complex than Camel's music. In short, this album has a pretty complex sound.

The quality is pretty good throughout. Raison De Plus has their own identity. Unfortunate, they have not included any great songs here. Songs that is full of both electric guitars and keyboards. All the instruments are competently handled by the band. The vocals are great though. I am not entirely convinced by this album, but will give their second album a chance. This is a good album and I suspect I need to give it a lot more time than I have given it so far. Maybe this is a grower.
/toroddfuglesteg/
- Jean-Louis Henriet / guitars
- Patrick Schweigoffer / drums
- Dominique Marrion / keyboards, vocals
- Philippe Rose / flute
- Francois Simonetti / bass

загрузка...
Правила, инструкции, FAQ!!!
Торрент  Добавлен [31 авг 2016, 18:35] Скачать торрент
Скачать торрент
[ Размер 13.88 КБ / Просмотров 1 ]

Статус
Проверен 
 
Размер  317.51 МБ
Приватный: Нет (DHT включён)
.torrent скачан  0
Как залить торрент? | Как скачать Torrent? | Как смотреть и слушать онлайн?  


     Отправить личное сообщение
   
Страница 1 из 1
Показать сообщения за:  Поле сортировки  
Начать новую тему Ответить на тему

   Похожие торренты   Автор   Ответы   Просмотры   Последнее сообщение 
В этой теме нет новых непрочитанных сообщений. Скачать торрент Проверен (Symphonic Prog) Raison De Plus - Ici Est Ailleurs - 2001, FLAC (tracks+.cue), lossless

в форуме Progressive & Art-Rock, Размер: 419.03 МБ, Здоровье: 0%

Anonymous

0
0|0

8
0

30 авг 2016, 00:17

Anonymous Перейти к последнему сообщению

В этой теме нет новых непрочитанных сообщений. Скачать торрент Проверен (Dark Ambient) [7"] [24/96] Raison d'Etre (raison d'être) - In Sadness, Silence and Solitude (expanded edition) [bonus disc] - 2014, FLAC (tracks), lossless

в форуме Электронная музыка (оцифровки), Размер: 184.89 МБ, Здоровье: 100%

Anonymous

0
2|1

11
0

15 сен 2016, 18:15

Anonymous Перейти к последнему сообщению

В этой теме нет новых непрочитанных сообщений. Скачать торрент Проверен (Progressive Rock/Symphonic Prog/Jazz Rock) Eela Craig - Symphonic Rock - 1995, FLAC (tracks+.cue), lossless

в форуме Progressive & Art-Rock, Размер: 438.46 МБ, Здоровье: 100%

Anonymous

0
36|1

5
2

31 авг 2016, 18:41

Anonymous Перейти к последнему сообщению

В этой теме нет новых непрочитанных сообщений. Скачать торрент Проверен (Symphonic Prog) Par Lindh Project - Rondo - 1995, FLAC (tracks+.cue), lossless

в форуме Progressive & Art-Rock, Размер: 132.16 МБ, Здоровье: 100%

Anonymous

0
2|1

1
0

01 сен 2016, 23:52

Anonymous Перейти к последнему сообщению

В этой теме нет новых непрочитанных сообщений. Скачать торрент Проверен (Symphonic Prog) Ange - Tome VI (1977) - 1995, FLAC (tracks+.cue) lossless

в форуме Progressive & Art-Rock, Размер: 399.1 МБ, Здоровье: 100%

Anonymous

0
1|0

1
0

31 авг 2016, 20:33

Anonymous Перейти к последнему сообщению



Сейчас этот форум просматривают: нет зарегистрированных пользователей и гости: 1


Вы не можете начинать темы
Вы не можете отвечать на сообщения
Вы не можете редактировать свои сообщения
Вы не можете удалять свои сообщения
Вы не можете добавлять вложения

Перейти:  

!ВНИМАНИЕ!
 Ресурс не предоставляет электронные версии произведений, а занимается лишь коллекционированием и каталогизацией ссылок, присылаемых и публикуемых на форуме нашими читателями. Если вы являетесь правообладателем какого-либо представленного материала и не желаете чтобы ссылка на него находилась в нашем каталоге, свяжитесь с нами и мы незамедлительно удалим её. Файлы для обмена на трекере предоставлены пользователями сайта, и администрация не несёт ответственности за их содержание. Просьба не заливать файлы, защищенные авторскими правами, а также файлы нелегального содержания!