На всех торрентах на трекере установлена скидка на скачивание в размере 100 процентов(а).
 Возможность скачивания торрента НЕ зависит от ограничений при низком ратио, низком аплоаде, требуемом ратио или требуемом аплоаде.


Начать новую тему Ответить на тему
Статистика раздачи
Размер: 1.36 ГБ | Добавлен: 21 окт 2014, 20:58 | Скачали: 6
Сидеров: 57  [0 байт/сек]    Личеров: 16  [0 байт/сек]
Пред. тема | След. тема 

Автор
Сообщение

СообщениеДобавлено: 21 окт 2014, 20:58 

Ответить с цитатой 

Свет в конце тоннеля

Жанр: Детектив
Год выпуска: 1974
Продолжительность: 01:31:58

Режиссёр: Алоиз Бренч

В ролях: Евгения Ветлова, Анатолий Азо, Александр Белявский, Улдис Думпис, Харий Лиепинь, Улдис Пуцитис, Владимир Осенев, Павел Насонов, Семен Соколовский, Николай Федорцов, Павел Кашлаков

Описание: Где-то в глухой тайге на уполномоченного Управления прииска совершено нападение. Одному из двух преступников удалось скрыться с двадцатью килограммами золота. Его сообщника поймали, но по дороге к месту предварительного заключения он бежал. И теперь капитану уголовного розыска Янису Крастыньшу предстоит найти и обезвредить преступников...

Семпл: http://multi-up.com/319682

Качество видео: SATRip
Формат видео: AVI

Видео: Xvid 720x320 25.00fps 1979kbps
Аудио: MPEG Audio Layer 3 48000Hz stereo 128kbps
General
Complete name : D:\Свет в конце тоннеля.avi
Format : AVI
Format/Info : Audio Video Interleave
File size : 1.36 GiB
Duration : 1h 31mn
Overall bit rate : 2 121 Kbps

Video
ID : 0
Format : MPEG-4 Visual
Format profile : Advanced Simple@L5
Format settings, BVOP : Yes
Format settings, QPel : No
Format settings, GMC : No warppoints
Format settings, Matrix : Default (H.263)
Codec ID : XVID
Codec ID/Hint : XviD
Duration : 1h 31mn
Bit rate : 1 980 Kbps
Width : 720 pixels
Height : 320 pixels
Display aspect ratio : 2.25:1
Frame rate : 25.000 fps
Resolution : 8 bits
Colorimetry : 4:2:0
Scan type : Progressive
Bits/(Pixel*Frame) : 0.344
Stream size : 1.27 GiB (93%)
Writing library : XviD 1.2.1 (UTC 2008-12-04)

Audio
ID : 1
Format : MPEG Audio
Format version : Version 1
Format profile : Layer 3
Codec ID : 55
Codec ID/Hint : MP3
Duration : 1h 31mn
Bit rate mode : Constant
Bit rate : 128 Kbps
Channel(s) : 2 channels
Sampling rate : 48.0 KHz
Stream size : 84.2 MiB (6%)
Alignment : Split accross interleaves
Interleave, duration : 24 ms (0.60 video frame)
загрузка...
Правила, инструкции, FAQ!!!
Торрент  Добавлен [21 окт 2014, 20:58] Скачать торрент Магнет ссылка
Скачать торрент
[ Размер 14.13 КБ / Просмотров 75 ]

Статус
Проверен 
 
Размер  1.36 ГБ
Приватный: Нет (DHT включён)
.torrent скачан  6
Как залить торрент? | Как скачать Torrent? | Ошибка в торренте? Качайте магнет  


     Отправить личное сообщение
   
Страница 1 из 1
Показать сообщения за:  Поле сортировки  
Начать новую тему Ответить на тему

   Похожие торренты   Автор   Ответы   Просмотры   Последнее сообщение 
В этой теме нет новых непрочитанных сообщений. Скачать торрент Проверен Ключи от рая (Алоиз Бренч) [1975 г., Детектив, DVDRip]

в форуме Кино СССР, Размер: 1.37 ГБ, Здоровье: 100%

Anonymous

0
147|17

656
26

21 окт 2014, 20:57

Anonymous Перейти к последнему сообщению

В этой теме нет новых непрочитанных сообщений. Скачать торрент Проверен Мираж (Алоиз Бренч) [1983 г., Детектив, приключения, драма, VHSRip]

в форуме Кино СССР, Размер: 1.88 ГБ, Здоровье: 100%

Anonymous

0
28|1

287
6

21 окт 2014, 21:00

Anonymous Перейти к последнему сообщению

В этой теме нет новых непрочитанных сообщений. Скачать торрент Проверен [iPhone] Мираж/ Алоиз Бренч) 1983 г., Драма/ Детектив/ Боевик/ Приключения., DVDRip

в форуме Фильмы для iPod, iPhone, iPad, Размер: 1.47 ГБ, Здоровье: 100%

Anonymous

0
2|1

142
0

18 май 2015, 10:52

Anonymous Перейти к последнему сообщению

В этой теме нет новых непрочитанных сообщений. Скачать торрент Проверен Алоиз Пендергаст - Дуглас Престон, Линкольн Чайлд - Серия Алоиз Пендергаст [1998-2014, FB2, RUS]

в форуме Фантастика, фэнтези, Размер: 18.01 МБ, Здоровье: 100%

Anonymous

0
19|6

237
2

12 июн 2017, 22:04

Anonymous Перейти к последнему сообщению

В этой теме нет новых непрочитанных сообщений. Скачать торрент Проверен ТЕРРА-Детектив - Тихорские И. и К. - Лунный свет [1997, PDF/DjVu/FB2, RUS]

в форуме Детективы и Боевики, Размер: 25.93 МБ, Здоровье: 35%

Anonymous

0
7|20

73
2

08 сен 2016, 20:45

Anonymous Перейти к последнему сообщению



Сейчас этот форум просматривают: нет зарегистрированных пользователей и гости: 0


Вы не можете начинать темы
Вы не можете отвечать на сообщения
Вы не можете редактировать свои сообщения
Вы не можете удалять свои сообщения
Вы не можете добавлять вложения

Перейти:  
Ресурс не предоставляет электронные версии произведений, а занимается лишь коллекционированием и каталогизацией ссылок, присылаемых и публикуемых на форуме нашими читателями. Если вы являетесь правообладателем какого-либо представленного материала и не желаете чтобы ссылка на него находилась в нашем каталоге, свяжитесь с нами и мы незамедлительно удалим её. Файлы для обмена на трекере предоставлены пользователями сайта, и администрация не несёт ответственности за их содержание. Просьба не заливать файлы, защищенные авторскими правами, а также файлы нелегального содержания!
cron